Our friends

Motrhead - 2006 - Kiss Of Death [Limited Edition] (FLAC) - NLi torrent

Torrent info

Date 2012-04-17 12:47:51
Category Music
Hash b550b62715c54fb3034b29eed7a186f23ea05b1e
Seeds / Leechs -1 / -1 refresh
Full size 371 MB
Tracker http://tracker.openbittorrent.com/scrape
Tags motrhead 2006 kiss death limited edition flac

Related torrents

Fleetwood Mac - Say You Will (Limited Edition) (FLAC)
The Chemical Brothers limited edition FLAC (h33t)(Hamacavula)
SBB - Blue Trance (2010 Limited Edition) [FLAC]
Iron Mask - Black As Death (Limited Edition) (2011) [mp3@320]

Torrent's content info

20 seconds audio samples

10 - Be My Baby .flac_sample.mp3
Audio file info Duration: 00:03:40.81, bitrate: 1081 kb/s
Stream #0.0: Audio: flac, 44100 Hz, 2 channels, s16
11 - Kingdom Of The Worm .flac_sample.mp3
Audio file info Duration: 00:04:08.74, bitrate: 1029 kb/s
Stream #0.0: Audio: flac, 44100 Hz, 2 channels, s16
07 - Living In The Past .flac_sample.mp3
Audio file info Duration: 00:03:45.22, bitrate: 1080 kb/s
Stream #0.0: Audio: flac, 44100 Hz, 2 channels, s16
01 - Sucker .flac_sample.mp3
Audio file info Duration: 00:02:59.04, bitrate: 1086 kb/s
Stream #0.0: Audio: flac, 44100 Hz, 2 channels, s16

Contents of download:

371 megabyte in 16 files
Motrhead - 2006 - Kiss Of Death [Limited Edition] (FLAC) - NLi
  • Motörhead - 2006 - Kiss Of Death [Limited Edition] (FLAC) - NLizer/01 - Sucker .flac (23 MB)
  • Motörhead - 2006 - Kiss Of Death [Limited Edition] (FLAC) - NLizer/02 - One Night Stand .flac (23 MB)
  • Motörhead - 2006 - Kiss Of Death [Limited Edition] (FLAC) - NLizer/03 - Devil I Know .flac (23 MB)
  • Motörhead - 2006 - Kiss Of Death [Limited Edition] (FLAC) - NLizer/04 - Trigger .flac (31 MB)
  • Motörhead - 2006 - Kiss Of Death [Limited Edition] (FLAC) - NLizer/05 - Under The Gun .flac (37 MB)
  • Motörhead - 2006 - Kiss Of Death [Limited Edition] (FLAC) - NLizer/06 - God Was Never On Your Side .flac (31 MB)
  • Motörhead - 2006 - Kiss Of Death [Limited Edition] (FLAC) - NLizer/07 - Living In The Past .flac (29 MB)
  • Motörhead - 2006 - Kiss Of Death [Limited Edition] (FLAC) - NLizer/08 - Christine .flac (28 MB)
  • Motörhead - 2006 - Kiss Of Death [Limited Edition] (FLAC) - NLizer/09 - Sword Of Glory .flac (31 MB)
  • Motörhead - 2006 - Kiss Of Death [Limited Edition] (FLAC) - NLizer/10 - Be My Baby .flac (28 MB)
  • Motörhead - 2006 - Kiss Of Death [Limited Edition] (FLAC) - NLizer/11 - Kingdom Of The Worm .flac (31 MB)
  • Motörhead - 2006 - Kiss Of Death [Limited Edition] (FLAC) - NLizer/12 - Going Down .flac (27 MB)
  • Motörhead - 2006 - Kiss Of Death [Limited Edition] (FLAC) - NLizer/13 - Whiplash [Bonus Track] .flac (29 MB)
  • Motörhead - 2006 - Kiss Of Death [Limited Edition] (FLAC) - NLizer/Kiss Of Death [Limited Edition].cue (1.1 KB)
  • Motörhead - 2006 - Kiss Of Death [Limited Edition] (FLAC) - NLizer/Motörhead - Kiss Of Death [Limited Edition].log (5.9 KB)
  • Motörhead - 2006 - Kiss Of Death [Limited Edition] (FLAC) - NLizer/Motörhead - Kiss Of Death [Limited Edition].m3u (0.9 KB)

Comments:


Add report or comment (250 words maximum)

I'd like:  
Type text from captcha: