Our friends

Sherlock Holmes A Game of Shadows 2011 BDRiP XViD-AN0NYM0US torrent

Torrent info

Date 2012-04-18 00:47:42
Category Movies
Hash 3638b866afadf02f1c0d02d5fc8e18ebe9e913cd
Seeds / Leechs 357 / 168 refresh
Full size 1408 MB
Tracker http://fr33dom.h33t.com:3310/scrape
Tags sherlock holmes game shadows 2011 bdrip xvid an0nym0us

Related torrents

Sherlock Holmes: A Game of Shadows 2011 TS XviD 26K-BiDA
Sherlock Holmes 2 A Game Of Shadows 2011 R6 XviD-Voodoo
Sherlock Holmes A Game of Shadows 2011 BRRip XviD Ac3 Feel-Free
Sherlock Holmes A Game of Shadows 2011 BDRiP XViD-AN0NYM0US

Sherlock Holmes: A Game of Shadows overview

Description

The second story based on highly popular novels about Sherlock Holmes was produced this time by Guy Ritchie which promised a lot more action and tricks. This second story is an independent creation written by Kieran Mulroney and Michele Mulroney although consulting Conan Doyle's The Final Problem. The characters performed by the same cast which was brought into play on the previous movie. Here we find married Dr. Watson performed by Jude Law ready to set off for the romantic journey with his young wife to Paris; however he gives a visit to his friend Sherlock Holmes who is absorbed with the series of seemingly disconnected crimes and actions. Soon it becomes clear that Sherlock is working on a single case which unites all the delinquencies across one evil person Professor Moriarty performed by Jared Harris. While Watson is away on a train with his wife, Holmes encounters Moriarty who poisoned Sherlock’s beloved Irene Adler and threatens to kill a young married couple if Holmes continues to interfere in Moriarty’s business. Holmes catches the train and an adventurous game begins. Stephen Fry added enormously to the films humor performing Sherlock’s brother Mycroft.   

Torrent's content info

anony-sherlock2_cd1.avi

Sherlock Holmes A Game of Shadows 2011 BDRiP XViD-AN0NYM0US screenshot
  • Screenshot 1
  • Screenshot 2
  • Screenshot 3
  • Screenshot 4
  • Screenshot 5
  • Screenshot 6
  • Screenshot 7
  • Screenshot 8
  • Screenshot 9

Duration: 01:05:19.33, start: 0.000000, bitrate: 1495 kb/s
Stream #0.0: Video: mpeg4, yuv420p, 640x272 [PAR 1:1 DAR 40:17], 23.98 tbr, 23.98 tbn, 23.98 tbc
Stream #0.1: Audio: ac3, 48000 Hz, 5.1, s16, 448 kb/s

Check the movie's sound/language:

Text sample Text sample from anony-sherlock2.nfo

Read full text


Text sample Text sample from www.UsaBit.com.txt





Contents of download:

1408 megabyte in 7 files
Sherlock Holmes A Game of Shadows 2011 BDRiP XViD-AN0NYM0US
  • [ UsaBit.com ] - Sherlock.Holmes.A.Game.of.Shadows.2011.BDRiP.XViD-AN0NYM0US/CD1/anony-sherlock2_cd1.avi (699 MB)
  • [ UsaBit.com ] - Sherlock.Holmes.A.Game.of.Shadows.2011.BDRiP.XViD-AN0NYM0US/CD2/anony-sherlock2_cd2.avi (695 MB)
  • [ UsaBit.com ] - Sherlock.Holmes.A.Game.of.Shadows.2011.BDRiP.XViD-AN0NYM0US/Proof/anony-sherlock2-proof.jpg (0.3 MB)
  • [ UsaBit.com ] - Sherlock.Holmes.A.Game.of.Shadows.2011.BDRiP.XViD-AN0NYM0US/Sample/anony-sherlock2_sample.avi (14 MB)
  • [ UsaBit.com ] - Sherlock.Holmes.A.Game.of.Shadows.2011.BDRiP.XViD-AN0NYM0US/anony-sherlock2.jpg (4.6 KB)
  • [ UsaBit.com ] - Sherlock.Holmes.A.Game.of.Shadows.2011.BDRiP.XViD-AN0NYM0US/anony-sherlock2.nfo (6.9 KB)
  • [ UsaBit.com ] - Sherlock.Holmes.A.Game.of.Shadows.2011.BDRiP.XViD-AN0NYM0US/www.UsaBit.com.txt (0 KB)

Comments:


Add report or comment (250 words maximum)

I'd like:  
Type text from captcha: