Our friends

DVD - The Sopranos - Season 02 [ Disc 04 ] Met NL Ondertiteling torrent

Torrent info

Date 2012-04-19 22:45:46
Category Movies
Hash f26c3cf6856fd07a056eae7bbfe14bd525582663
Seeds / Leechs 8 / 26 refresh
Full size 3375 MB
Tracker http://tracker.thepiratebay.org/announce
Tags sopranos season disc ondertiteling

Related torrents

DVD - The Sopranos - Season 01 [ Disc 02 ] Met NL Ondertiteling
DVD - The Sopranos - Season 01 [ Disc 05 ] Met NL Ondertiteling
DVD - The Sopranos - Season 02 [ Disc 05 ] Met NL Ondertiteling
DVD - The Sopranos - Season 02 [ Disc 04 ] Met NL Ondertiteling

The Sopranos overview

Description

The series "The Sopranos"- American crime drama, filmed on the script by David Chase and consisting of six seasons. The plot revolves around a serial - mafia family that lives in Northern New Jersey. The head of the family, "godfather" Tony Soprano, has successfully managed to "work" issues - many showdowns and crime. But on a personal front he is not so smooth. His wife, children, mistress and elderly are flown into insanity, bring him to mind. Tony is looking for help at the analyst. "The Sopranos" has six seasons and entire episodes can be divided into two storylines: the first three seasons - Tony and his mother, the next three seasons - the enmity between Tony and Johnny Sack. The series has been recognized as the best TV series in the history of American cinema! Thoroughly planned, interesting dialogue, great acting, breathtaking contrast between humor and tragedy, romance and harsh reality, a great soundtrack that covered the history of rock - music. James Gandolfini out of competition! Still very pleased with Tony Ceric, who played Paulie. The actor is an example of how people went from petty gangsters to the actor, in an instant became world famous thanks to impeccably played role.

Torrent's content info

VTS_03_1.VOB

DVD - The Sopranos - Season 02 [ Disc 04 ] Met NL Ondertiteling screenshot
  • Screenshot 1
  • Screenshot 2
  • Screenshot 3
  • Screenshot 4
  • Screenshot 5
  • Screenshot 6
  • Screenshot 7
  • Screenshot 8
  • Screenshot 9

Duration: 00:50:19.29, start: 0.048689, bitrate: 2844 kb/s
Stream #0.0[0x1e0]: Video: mpeg2video, yuv420p, 720x576 [PAR 64:45 DAR 16:9], 9008 kb/s, 24 fps, 50 tbr, 90k tbn, 50 tbc
Stream #0.1[0x80]: Audio: ac3, 48000 Hz, stereo, s16, 192 kb/s

Check the movie's sound/language:

Contents of download:

3375 megabyte in 23 files
DVD - The Sopranos - Season 02 [ Disc 04 ] Met NL Ondertiteling
  • DVD - The Sopranos - Season 02 [ Disc 04 ] Met NL Ondertiteling/VIDEO_TS/VTS_02_1.VOB (1024 MB)
  • DVD - The Sopranos - Season 02 [ Disc 04 ] Met NL Ondertiteling/VIDEO_TS/VTS_03_1.VOB (1024 MB)
  • DVD - The Sopranos - Season 02 [ Disc 04 ] Met NL Ondertiteling/VIDEO_TS/VTS_01_1.VOB (964 MB)
  • DVD - The Sopranos - Season 02 [ Disc 04 ] Met NL Ondertiteling/VIDEO_TS/VTS_03_2.VOB (179 MB)
  • DVD - The Sopranos - Season 02 [ Disc 04 ] Met NL Ondertiteling/VIDEO_TS/VTS_02_2.VOB (155 MB)
  • DVD - The Sopranos - Season 02 [ Disc 04 ] Met NL Ondertiteling/VIDEO_TS/VTS_02_0.VOB (8.6 MB)
  • DVD - The Sopranos - Season 02 [ Disc 04 ] Met NL Ondertiteling/VIDEO_TS/VTS_01_0.VOB (8.5 MB)
  • DVD - The Sopranos - Season 02 [ Disc 04 ] Met NL Ondertiteling/VIDEO_TS/VTS_03_0.VOB (8.4 MB)
  • DVD - The Sopranos - Season 02 [ Disc 04 ] Met NL Ondertiteling/VIDEO_TS/VIDEO_TS.VOB (2.8 MB)
  • DVD - The Sopranos - Season 02 [ Disc 04 ] Met NL Ondertiteling/The Sopranos - S02E11 - House Arrest.avi.jpg (0.2 MB)
  • DVD - The Sopranos - Season 02 [ Disc 04 ] Met NL Ondertiteling/The Sopranos - S02E10 - Bust-Out.avi.jpg (0.2 MB)
  • DVD - The Sopranos - Season 02 [ Disc 04 ] Met NL Ondertiteling/The Sopranos - S02E09 - From Where to Eternity.avi.jpg (0.2 MB)
  • DVD - The Sopranos - Season 02 [ Disc 04 ] Met NL Ondertiteling/dvd.jpg (79.3 KB)
  • DVD - The Sopranos - Season 02 [ Disc 04 ] Met NL Ondertiteling/VIDEO_TS/VTS_03_0.BUP (54 KB)
  • DVD - The Sopranos - Season 02 [ Disc 04 ] Met NL Ondertiteling/VIDEO_TS/VTS_02_0.IFO (54 KB)
  • DVD - The Sopranos - Season 02 [ Disc 04 ] Met NL Ondertiteling/VIDEO_TS/VTS_03_0.IFO (54 KB)
  • DVD - The Sopranos - Season 02 [ Disc 04 ] Met NL Ondertiteling/VIDEO_TS/VTS_02_0.BUP (54 KB)
  • DVD - The Sopranos - Season 02 [ Disc 04 ] Met NL Ondertiteling/VIDEO_TS/VTS_01_0.IFO (52 KB)
  • DVD - The Sopranos - Season 02 [ Disc 04 ] Met NL Ondertiteling/VIDEO_TS/VTS_01_0.BUP (52 KB)
  • DVD - The Sopranos - Season 02 [ Disc 04 ] Met NL Ondertiteling/VIDEO_TS/VIDEO_TS.BUP (16 KB)
  • DVD - The Sopranos - Season 02 [ Disc 04 ] Met NL Ondertiteling/VIDEO_TS/VIDEO_TS.IFO (16 KB)
  • DVD - The Sopranos - Season 02 [ Disc 04 ] Met NL Ondertiteling/READ ME !!!.rtf (0.6 KB)
  • DVD - The Sopranos - Season 02 [ Disc 04 ] Met NL Ondertiteling/file info.rtf (0.4 KB)

Comments:


Add report or comment (250 words maximum)

I'd like:  
Type text from captcha: