Our friends

Cutting Through the Matrix - 2012 Apr 18 WE sebaygo1 torrent

Torrent info

Date 2012-04-21 00:47:40
Category Other
Hash 8d0399764b16465e9bf25474f99566f40a0a9044
Seeds / Leechs -1 / -1 refresh
Full size 11 MB
Tracker http://fr33dom.h33t.com:3310/scrape
Tags cutting through matrix 2012 sebaygo1

Related torrents

Alan Watt - Cutting Through The Matrix - week 38, 2008
Alan Watt - Cutting Through The Matrix - week 1-26, 2008
Cutting Through the Matrix - Sep 27 TU [sebaygo1]
Cutting Through the Matrix - Dec 21 WE [sebaygo1]

The Matrix (1999) overview

Genre: adventure, sci-fi, action Director: Wachowski, Andy

Description

Thomas A. Anderson is a man living two lives. By day he is an average computer programmer and by night a malevolent hacker known as Neo. Neo has always questioned his reality but the truth is far beyond his imagination. Neo finds himself targeted by the police when he is contacted by Morpheus, a legendary computer hacker branded a terrorist by the government. Morpheus awakens Neo to the real world, a ravaged wasteland where most of humanity have been captured by a race of machines which live off of their body heat and imprison their minds within an artificial reality known as the Matrix. As a rebel against the machines, Neo must return to the Matrix and confront the agents, super powerful computer programs devoted to snuffing out Neo and the entire human rebellion.  

Torrent's content info

20 seconds audio samples

CTtM-AlanWatt_2012_04_18_b_sample.mp3
Audio file info Duration: 00:22:34.77, start: 0.000000, bitrate: 32 kb/s
Stream #0.0: Audio: mp3, 22050 Hz, 1 channels, s16, 32 kb/s
CTtM-AlanWatt_2012_04_18_a_sample.mp3
Audio file info Duration: 00:23:39.76, start: 0.000000, bitrate: 32 kb/s
Stream #0.0: Audio: mp3, 22050 Hz, 1 channels, s16, 32 kb/s

Text sample Text sample from CTtM-AlanWatt_show-info_2012_04_18.txt.nfo

.

Cutting Through the Matrix
= with Alan Watt =
Wednesday, 18 April 2012


[sebaygo1]


See my blog -- [sebaygo1.blogspot.com] -- for a detailed listing of the new stories discussed in this episode.


This audio is from an RBN podcast file recorded live from the Republic Broadcasting Network stream. Network commercials have been edited out.


Visit Alan Watt's main website -- www.cuttingthroughthematrix.com -- to download podcasts, read show summaries, and purchase books, DVDs and special audio recordings by him.

Official websites include:
cuttingthroughthematrix.com
cuttingthroughthematrix.net
cuttingthroughthematrix.org
cuttingthroughthematrix.us
cuttingthroughthematrix.ca
alanwattcuttingthroughthematrix.ca
alanwattsentientsentinel.eu



#%#%#%#%#%#%#%#%#%#%#%#%#%#%#%#%#%#%#%#%#%#%#%#%#%#%#
Not able to find a torrent of mine where or when you
expected it?
Check out my torrents blog for info about what I am
uploading, tracker problems, etc..

Some sites will not...

Read full text


Contents of download:

11 megabyte in 5 files
Cutting Through the Matrix - 2012 Apr 18 WE sebaygo1
  • CTtM-AlanWatt_2012_04_18WE/CTtM-AlanWatt_2012_04_18_a.mp3 (5.4 MB)
  • CTtM-AlanWatt_2012_04_18WE/CTtM-AlanWatt_2012_04_18_b.mp3 (5.2 MB)
  • CTtM-AlanWatt_2012_04_18WE/CTtM-AlanWatt_2012_04_18_playlist.m3u (0.1 KB)
  • CTtM-AlanWatt_2012_04_18WE/CTtM-AlanWatt_show-info_2012_04_18.txt.nfo (3.1 KB)
  • CTtM-AlanWatt_2012_04_18WE/sebaygo1_TorrentsAndBlogInfo_ver2.pdf (9.3 KB)

Comments:


Add report or comment (250 words maximum)

I'd like:  
Type text from captcha: