Our friends

Clark Iradelphic, je idm/electro/dubstep/breakbeat/experimental 2012 FLAC CodeTempest torrent

Torrent info

Date 2012-04-21 00:48:35
Category Music
Hash 8841c2184fff05fe878603176e091b9ea347f413
Seeds / Leechs -1 / -1 refresh
Full size 249 MB
Tracker http://fr33dom.h33t.com:3310/scrape
Tags clark iradelphic electro dubstep breakbeat experimental 2012 flac codetempest

Related torrents

Chris Tietjen Sieben electro/techno/mathtech VA 2012 FLAC CodeTempest
Mike Sheridan Ved Første Øjekast idm/electro/dubstep/breakbeat/ambient 2012 FLAC CodeTempest
Lone Galaxy Garden, japanese edition idm/electro/dubstep/breakbeat/ambient 2012 FLAC CodeTempest
Sleep Research Facility Stealth, 2cd edition electronic/drone/modernclassical/electroacoustic/ambient/experimental 2012 FLAC CodeTempest

Torrent's content info

20 seconds audio samples

11 - The Pining Pt3.flac_sample.mp3
Audio file info Duration: 00:02:42.17, bitrate: 651 kb/s
Stream #0.0: Audio: flac, 44100 Hz, 2 channels, s16
07 - Ghosted.flac_sample.mp3
Audio file info Duration: 00:03:38.61, bitrate: 834 kb/s
Stream #0.0: Audio: flac, 44100 Hz, 2 channels, s16
04 - Skyward Bruise,Descent.flac_sample.mp3
Audio file info Duration: 00:02:00.06, bitrate: 689 kb/s
Stream #0.0: Audio: flac, 44100 Hz, 2 channels, s16
10 - The Pining Pt2.flac_sample.mp3
Audio file info Duration: 00:03:11.24, bitrate: 997 kb/s
Stream #0.0: Audio: flac, 44100 Hz, 2 channels, s16

Contents of download:

249 megabyte in 26 files
Clark Iradelphic, je idm/electro/dubstep/breakbeat/experimental 2012 FLAC CodeTempest
  • Clark/Clark [Iradelphic, je] [FLAC] [CodeTempest]/01 - Henderson Wrench.flac (16 MB)
  • Clark/Clark [Iradelphic, je] [FLAC] [CodeTempest]/02 - Com Touch.flac (29 MB)
  • Clark/Clark [Iradelphic, je] [FLAC] [CodeTempest]/03 - Tooth Moves.flac (20 MB)
  • Clark/Clark [Iradelphic, je] [FLAC] [CodeTempest]/04 - Skyward Bruise,Descent.flac (10 MB)
  • Clark/Clark [Iradelphic, je] [FLAC] [CodeTempest]/05 - Open.flac (22 MB)
  • Clark/Clark [Iradelphic, je] [FLAC] [CodeTempest]/06 - Secret.flac (24 MB)
  • Clark/Clark [Iradelphic, je] [FLAC] [CodeTempest]/07 - Ghosted.flac (22 MB)
  • Clark/Clark [Iradelphic, je] [FLAC] [CodeTempest]/08 - Black Stone.flac (7.4 MB)
  • Clark/Clark [Iradelphic, je] [FLAC] [CodeTempest]/09 - The Pining Pt1.flac (28 MB)
  • Clark/Clark [Iradelphic, je] [FLAC] [CodeTempest]/10 - The Pining Pt2.flac (23 MB)
  • Clark/Clark [Iradelphic, je] [FLAC] [CodeTempest]/11 - The Pining Pt3.flac (13 MB)
  • Clark/Clark [Iradelphic, je] [FLAC] [CodeTempest]/12 - Broken Kite Footage.flac (18 MB)
  • Clark/Clark [Iradelphic, je] [FLAC] [CodeTempest]/13 - Lysergic Planes.flac (12 MB)
  • Clark/Clark [Iradelphic, je] [FLAC] [CodeTempest]/Clark - Iradelphic.log (12.1 KB)
  • Clark/Clark [Iradelphic, je] [FLAC] [CodeTempest]/Clark [Iradelphic, je] [2012] [FLAC] [CodeTempest] [DESCRIPTION].rtf (1.3 KB)
  • Clark/Clark [Iradelphic, je] [FLAC] [CodeTempest]/Iradelphic.cue (1.6 KB)
  • Clark/Clark [Iradelphic, je] [FLAC] [CodeTempest]/Iradelphic.new.cue (1.2 KB)
  • Clark/Clark [Iradelphic, je] [FLAC] [CodeTempest]/Z - CodeTempest 91.jpg (1.1 MB)
  • Clark/Clark [Iradelphic, je] [FLAC] [CodeTempest]/[SCANS]/back (inside).jpg (0.4 MB)
  • Clark/Clark [Iradelphic, je] [FLAC] [CodeTempest]/[SCANS]/back.jpg (0.5 MB)
  • Clark/Clark [Iradelphic, je] [FLAC] [CodeTempest]/[SCANS]/disc.jpg (0.3 MB)
  • Clark/Clark [Iradelphic, je] [FLAC] [CodeTempest]/[SCANS]/front.jpg (0.4 MB)
  • Clark/Clark [Iradelphic, je] [FLAC] [CodeTempest]/[SCANS]/inlay (japanese).jpg (1.8 MB)
  • Clark/Clark [Iradelphic, je] [FLAC] [CodeTempest]/[SCANS]/inlay.jpg (0.4 MB)
  • Clark/Clark [Iradelphic, je] [FLAC] [CodeTempest]/[SCANS]/notes (japanese version).jpg (0.3 MB)
  • Clark/Clark [Iradelphic, je] [FLAC] [CodeTempest]/cover.jpg (48.5 KB)

Comments:


Add report or comment (250 words maximum)

I'd like:  
Type text from captcha: