Our friends

UFC 145 Preliminary Fights HDTV XviD-AFG torrent

Torrent info

Date 2012-04-22 13:45:53
Category Series/TV Shows
Hash 0fe9114efbfde9ed149b3a7b8c251432e9c038f1
Seeds / Leechs -1 / -1 refresh
Full size 1847 MB
Tracker http://tracker.thepiratebay.org/announce
Tags preliminary fights hdtv xvid
Download – UFC 145 Preliminary Fights HDTV XviD-AFG Download direct – no client needed

Related torrents

UFC 103 Preliminary Fights HDTV XviD-KYR-tracker BTARENA org
UFC 103 Preliminary Fights HDTV XviD
UFC 106 Preliminary Fights HDTV XviD-KYR
UFC 133 Preliminary Fights HDTV XviD-KYR

Torrent's content info

UFC.145.Preliminary.Fights.HDTV.XviD-AFG.avi

UFC 145 Preliminary Fights HDTV XviD-AFG screenshot
  • Screenshot 1
  • Screenshot 2
  • Screenshot 3
  • Screenshot 4
  • Screenshot 5
  • Screenshot 6
  • Screenshot 7
  • Screenshot 8
  • Screenshot 9

Duration: 01:31:35.56, start: 0.000000, bitrate: 2819 kb/s
Stream #0.0: Video: mpeg4, yuv420p, 640x360 [PAR 1:1 DAR 16:9], 59.92 tbr, 59.92 tbn, 59.96 tbc
Stream #0.1: Audio: mp3, 48000 Hz, 2 channels, s16, 56 kb/s

Check the movie's sound/language:

Text sample Text sample from www.Torrentday.com.txt

www.TorrentDay.com - is the Place you should be!!! (^_~)

we are the most on-time tracker around the globe, You can download releases whenever they release out by group of uploaders.

no Wait Time, no Virus, Very Fast Download Speed.

Visit us at http://www.torrentday.com


Support Torrentday.com to grow faster :)


Thank you =)

http://www.Torrentday.com


www.TorrentDay.com
www.TorrentDay.com
www.TorrentDay.com
www.TorrentDay.com




Text sample Text sample from First Read This Guide.txt

www.TorrentDay.com - is the Place you should be!!! (^_~)

we are the most on-time tracker around the globe, You can download releases whenever they release out by group of uploaders.

no Wait Time, no Virus, Very Fast Download Speed.

Visit us at http://www.torrentday.com


Support Torrentday.com to grow faster :)


Thank you =)

http://www.Torrentday.com


www.TorrentDay.com
www.TorrentDay.com
www.TorrentDay.com
www.TorrentDay.com




Text sample Text sample from UFC.145.Preliminary.Fights.HDTV.XviD-AFG.nfo

[title]

UFC.145.Preliminary.Fights.HDTV.XviD-AFG

[/title]

[pre]
[b][color=red] UFC.145.Preliminary.Fights.HDTV.XviD-AFG.avi[/color][/b]

Duration : 92 Minutes
Release Size : 1.80GB
XviD Video : 2 673 Kbps
FrameRate : 59.940
MP3 2ch CBR : 128 Kbps
Resolution (AR) : 640x360 (1.778)




[/pre]



[b]AFG - Where Lions Live![/b]




Contents of download:

1847 megabyte in 4 files
UFC 145 Preliminary Fights HDTV XviD-AFG
  • [ www.TorrentDay.com ] - UFC.145.Preliminary.Fights.HDTV.XviD-AFG/First Read This Guide.txt (0.5 KB)
  • [ www.TorrentDay.com ] - UFC.145.Preliminary.Fights.HDTV.XviD-AFG/UFC.145.Preliminary.Fights.HDTV.XviD-AFG.avi (1847 MB)
  • [ www.TorrentDay.com ] - UFC.145.Preliminary.Fights.HDTV.XviD-AFG/UFC.145.Preliminary.Fights.HDTV.XviD-AFG.nfo (0.4 KB)
  • [ www.TorrentDay.com ] - UFC.145.Preliminary.Fights.HDTV.XviD-AFG/www.Torrentday.com.txt (0.5 KB)

Comments:


Add report or comment (250 words maximum)

I'd like:  
Type text from captcha: