Our friends

[HorribleSubs] One Piece - 543 [360p].mkv torrent

Torrent info

Date 2012-04-24 00:48:16
Category Anime
Hash 6c8a751c248af918b3a569bf5e2d215d08c8a653
Seeds / Leechs -1 / -1 refresh
Full size 228 MB
Tracker http://fr33dom.h33t.com:3310/scrape
Tags horriblesubs piece 360p
Download – [HorribleSubs] One Piece - 543 [360p].mkv Download direct – no client needed

Related torrents

Lance-HorribleSubs One Piece - 432 360p.mkv
Lance-HorribleSubs One Piece - 435 360p.mkv
Lance-HorribleSubs One Piece - 434 360p.mkv
[HorribleSubs] One Piece - 471 [360p].mkv

One Piece (1999) overview

Director: Suzuki, Takuji

Description

It was a time when pirates were masters of the seas. Many ships plied the oceans, battling each other in search of the world's largest treasure, whose name is One Piece. This grace has been collected over many years of adventures legendary pirate captain, Gold Roger, who rightfully earned the title of King of the Pirates. Our main hero - a simple boy named Monkey D. Luffy, who always wanted to be a pirate. Once, he accidentally ate one of the evil fruit that people bestow superhuman capabilities, and has a rubber man. Multiple references speak of the erudition of the author. "Egyptian" Alabasta "Flying Dutchman", almost Greek Olympus with the supreme deity like Eminem, heroes, named after the real pirates and showmen. Smart and beautiful Russian archeologist Niko Robin, tall, handsome, dark-haired, one never raised her voice on the team. She likes to drink coffee and read books. Robin - one of the most beautiful and enjoyable anime heroines in the history. A truly kind and friendly cartoon about a brave team of pirates (the good pirates) who go forward to the dream, in spite of all difficulties and obstacles. A great adventure!

Torrent's content info

[HorribleSubs] One Piece - 543 [360p].mkv

[HorribleSubs] One Piece - 543 [360p].mkv screenshot
  • Screenshot 1
  • Screenshot 2
  • Screenshot 3
  • Screenshot 4
  • Screenshot 5
  • Screenshot 6
  • Screenshot 7
  • Screenshot 8
  • Screenshot 9

Duration: 00:23:31.42, start: 0.000000, bitrate: 128 kb/s
Stream #0.0: Video: vp6f, yuv420p, 640x368, PAR 1:1 DAR 40:23, 23.81 fps, 23.81 tbr, 1k tbn, 23.81 tbc
Stream #0.1: Audio: mp3, 44100 Hz, 2 channels, s16, 128 kb/s

Check the movie's sound/language:

Contents of download:

228 megabyte in 1 files
[HorribleSubs] One Piece - 543 [360p].mkv
  • [HorribleSubs] One Piece - 543 [360p].mkv (228 MB)

Comments:


Add report or comment (250 words maximum)

I'd like:  
Type text from captcha: