Our friends

[Chihiro] K-On!! - 14 [1280x720 H.264 AAC] torrent

Torrent info

Date 2012-04-25 00:45:51
Category Anime
Hash 82dbbb9038ad398b423f24950fbd2b5bfcec478c
Seeds / Leechs 1 / 0 refresh
Full size 211 MB
Tracker http://nyaatorrents.info:3277/scrape
Tags chihiro 1280x720
Download – [Chihiro] K-On!! - 14 [1280x720 H.264 AAC] Download direct – no client needed

Related torrents

[Chihiro] Asura Cryin - 01 [1280x720 H.264 AAC]
[Tsukasa-Chihiro] Hatsukoi Limited - 01 [1280x720 H.264 AAC][4DC7F446] mkv
(Chihiro) Asura Cryin - 03 (1280x720 H 264 AAC)(7DC24534) mkv
(Tsukasa-Chihiro) Hatsukoi Limited - 02 (1280x720 H 264 AAC)(22432355) mkv

Torrent's content info

[Chihiro]_K-On!!_-_14_[1280x720_H.264_AAC][B7468E7B].mkv

[Chihiro] K-On!! - 14 [1280x720 H.264 AAC] screenshot
  • Screenshot 1
  • Screenshot 2
  • Screenshot 3
  • Screenshot 4
  • Screenshot 5
  • Screenshot 6
  • Screenshot 7
  • Screenshot 8
  • Screenshot 9

title : Preview
Stream #0.0(eng): Video: h264, yuv420p, 1280x720, PAR 1:1 DAR 16:9, 23.98 fps, 23.98 tbr, 1k tbn, 47.95 tbc
Stream #0.1(jpn): Audio: aac, 48000 Hz, stereo, s16
Stream #0.2(eng): Subtitle: 0x0000
Stream #0.3: Attachment: 0x0000

Check the movie's sound/language:

Contents of download:

211 megabyte in 3 files
[Chihiro] K-On!! - 14 [1280x720 H.264 AAC]
  • [Chihiro]_K-On!!_-_14_[1280x720_H.264_AAC]/[Chihiro]_K-On!!_-_14_[1280x720_H.264_AAC][B7468E7B].mkv (148 MB)
  • [Chihiro]_K-On!!_-_14_[1280x720_H.264_AAC]/[Chihiro]_K-On!!_-_ED2_[1280x720_H.264_AAC][9EECDC57].mkv (32 MB)
  • [Chihiro]_K-On!!_-_14_[1280x720_H.264_AAC]/[Chihiro]_K-On!!_-_OP2_[1280x720_H.264_AAC][C71C10F2].mkv (31 MB)

Comments:


Add report or comment (250 words maximum)

I'd like:  
Type text from captcha: