Our friends

American Pie Reunion 2012 TS x264 AAC-Seedpeer torrent

Torrent info

Date 2012-04-28 00:48:38
Category Movies
Hash 209bbf1f610e7a2cd17da4fe0403f0f9e9fcc0d9
Seeds / Leechs -1 / -1 refresh
Full size 859 MB
Tracker http://tracker.1337x.org/scrape
Tags american reunion 2012 x264 seedpeer

Related torrents

American Reunion 2012 UNRATED 720p BluRay X264-BLO [PublicHD]
American Reunion (2012) x264 (MKV)1080p DTS DD 5 1 NL Subs TBS
American Reunion (2012) UNRATED 480p BRRip x264 AAC-ChameE
American Reunion 2012 Unrated 720p BRRip x264 ac-3 vice

American Reunion overview

Description

Torrent's content info

American.Pie.Reunion.2012.TS.x264.AAC-Seedpeer.mp4

American Pie Reunion 2012 TS x264 AAC-Seedpeer screenshot
  • Screenshot 1
  • Screenshot 2
  • Screenshot 3
  • Screenshot 4
  • Screenshot 5
  • Screenshot 6
  • Screenshot 7
  • Screenshot 8
  • Screenshot 9

Duration: 01:44:00.95, start: 0.000000, bitrate: 1141 kb/s
Stream #0.0(und): Video: h264, yuv420p, 680x364, 1011 kb/s, 29.98 fps, 29.98 tbr, 90k tbn, 59.96 tbc
Stream #0.1(und): Audio: aac, 48000 Hz, stereo, s16, 124 kb/s

Check the movie's sound/language:

Text sample Text sample from www.Seedpeer.me American Pie Reunion TS.nfo

[img]http://img138.imageshack.us/img138/2600/americanpiereunionposte.jpg[/img]

[b][color=red]American Pie Reunion 2012 TS x264 AAC-Seedpeer[/color][/b]

[b]Genre:[/b] Comedy
[b]Directors:[/b] Jon Hurwitz, Hayden Schlossberg
[b]Writers:[/b] Adam Herz - characters
Jon Hurwitz and Hayden Schlossberg creenplay
[b]Language:[/b] English

[b][color=green]Storyline[/color][/b]
Over a decade has passed and the gang return to East Great Falls, Michigan,
for the weekend. They will discover how their lives have developed as they
gather for their high school reunion. How has life treated Michelle, Jim,
Heather, Oz, Kevin, Vicky, Finch, Stifler, and Stifler's mom? In the summer
of 1999, it was four boys on a quest to lose their virginity. Now Kara is a
cute high school senior looking for the perfect guy to lose her virginity
to.

[b][color=green]CAST[/color][/b]
Jason Biggs ... Jim Levenstein
Alyson Hannigan ... Michelle
Chris Klein ... Oz
Thomas Ian Nicholas ... Kevin
Tara Reid ... Vicky
Seann...

Read full text


Contents of download:

859 megabyte in 3 files
American Pie Reunion 2012 TS x264 AAC-Seedpeer
  • American.Pie.Reunion.2012.TS.x264.AAC-Seedpeer/American.Pie.Reunion.2012.TS.x264.AAC-Seedpeer.mp4 (849 MB)
  • American.Pie.Reunion.2012.TS.x264.AAC-Seedpeer/Sample/Sample.mp4 (10 MB)
  • American.Pie.Reunion.2012.TS.x264.AAC-Seedpeer/www.Seedpeer.me American Pie Reunion TS.nfo (3.8 KB)

Comments:


Add report or comment (250 words maximum)

I'd like:  
Type text from captcha: