Our friends

Night Vision 2011 HDTVRip XviD Ac3 Feel-Free torrent

Torrent info

Date 2012-04-28 00:53:31
Category Movies
Hash efb70a58e98ca5a00efebfc62ecdcebad942051e
Seeds / Leechs 4 / 4 refresh
Full size 897 MB
Tracker http://tracker.1337x.org/scrape
Tags night vision 2011 hdtvrip xvid feel free
Download – Night Vision 2011 HDTVRip XviD Ac3 Feel-Free Download direct – no client needed

Related torrents

Paul 2011 CAM XviD Feel-Free
Just Go With It 2011 TS XViD Feel-Free
Limitless 2011 TS XviD Feel-Free
Night Vision 2011 HDTVRip XviD Ac3 Feel-Free

Torrent's content info

Night.Vision.2011.HDTVRip.XviD.Ac3.Feel-Free.avi

Night Vision 2011 HDTVRip XviD Ac3 Feel-Free screenshot
  • Screenshot 1
  • Screenshot 2
  • Screenshot 3
  • Screenshot 4
  • Screenshot 5
  • Screenshot 6
  • Screenshot 7
  • Screenshot 8
  • Screenshot 9

Duration: 01:28:13.04, start: 0.000000, bitrate: 1419 kb/s
Stream #0.0: Video: mpeg4, yuv420p, 640x352 [PAR 1:1 DAR 20:11], 23.98 tbr, 23.98 tbn, 23.98 tbc
Stream #0.1: Audio: ac3, 48000 Hz, 5.1, s16, 448 kb/s

Check the movie's sound/language:

Text sample Text sample from Torrent downloaded from Extratorrent.com.txt

Torrent downloaded from http://extratorrent.com/


Make sure its a real Feel-Free release @ http://extratorrent.com

Thanks to all who promotes release Feel-Free !!!




Text sample Text sample from Night.Vision.2011.HDTVRip.XviD.Ac3.Feel-Free.nfo

[img]http://img571.imageshack.us/img571/7510/402343bas1nu8x.jpg[/img]
[img]http://img833.imageshack.us/img833/4273/1667317.jpg[/img]



Genre:Thriller
Language:English
IMDb:http://www.imdb.com/title/tt1667317/
Source:SIC Thanks!
Encoder:Tony

Format : AVI
Format/Info : Audio Video Interleave
File size : 896 MiB
Duration : 1h 28mn
Overall bit rate : 1 419 Kbps

Video
ID : 0
Format : MPEG-4 Visual
Format profile : Advanced Simple@L5
Format settings, BVOP : 1
Format settings, QPel : No
Format settings, GMC : No warppoints
Format settings, Matrix : Default (H.263)
Codec ID : XVID
Codec ID/Hint :...

Read full text


Contents of download:

897 megabyte in 8 files
Night Vision 2011 HDTVRip XviD Ac3 Feel-Free
  • Night.Vision.2011.HDTVRip.XviD.Ac3.Feel-Free/1667317.jpg (77.2 KB)
  • Night.Vision.2011.HDTVRip.XviD.Ac3.Feel-Free/Night.Vision.2011.HDTVRip.XviD.Ac3.Feel-Free.avi (896 MB)
  • Night.Vision.2011.HDTVRip.XviD.Ac3.Feel-Free/Night.Vision.2011.HDTVRip.XviD.Ac3.Feel-Free.nfo (3.3 KB)
  • Night.Vision.2011.HDTVRip.XviD.Ac3.Feel-Free/Torrent downloaded from Extratorrent.com.txt (0.2 KB)
  • Night.Vision.2011.HDTVRip.XviD.Ac3.Feel-Free/vlcsnap-2012-04-17-09h17m47s154.png (0.2 MB)
  • Night.Vision.2011.HDTVRip.XviD.Ac3.Feel-Free/vlcsnap-2012-04-17-09h18m06s83.png (0.3 MB)
  • Night.Vision.2011.HDTVRip.XviD.Ac3.Feel-Free/vlcsnap-2012-04-17-09h18m16s184.png (0.3 MB)
  • Night.Vision.2011.HDTVRip.XviD.Ac3.Feel-Free/vlcsnap-2012-04-17-09h19m08s189.png (0.3 MB)

Comments:


Add report or comment (250 words maximum)

I'd like:  
Type text from captcha: