Our friends

Neeku Naku Dash Dash(2012) - 1cd - Dvdscr - www downloadmirchi com avi torrent

Torrent info

Date 2012-04-28 00:58:34
Category Movies
Hash 5af3fb3869e9f2673c1ef8858533ac5238f25120
Seeds / Leechs -1 / -1 refresh
Full size 739 MB
Tracker http://www.downloadmirchi.com:2710/gv5dtv0c7tzp5xgtkmi93onz5q36r3cn/scrape
Tags neeku naku dash dash 2012 dvdscr downloadmirchi

Related torrents

Fashion Dash - Dash Game (AllSmartGame)
The Artist 2012 DVDScr XVID AC3 HQ Hive-CM8
The Grey 2012 DVDSCR XviD - ZOMBiES
The Grey 2012 DVDSCR XviD - NO WATERMARK - INFERNO

Torrent's content info

Neeku Naku Dash Dash(2012) - 1cd - Dvdscr - www.downloadmirchi.com.avi

Neeku Naku Dash Dash(2012) - 1cd - Dvdscr - www downloadmirchi com avi screenshot
  • Screenshot 1
  • Screenshot 2
  • Screenshot 3
  • Screenshot 4
  • Screenshot 5
  • Screenshot 6
  • Screenshot 7
  • Screenshot 8
  • Screenshot 9

Duration: 02:34:27.96, start: 0.000000, bitrate: 668 kb/s
Stream #0.0: Video: h264, yuv420p, 604x282 [PAR 1:1 DAR 302:141], 25 fps, 25 tbr, 25 tbn, 50 tbc
Stream #0.1: Audio: mp3, 44100 Hz, 2 channels, s16, 128 kb/s

Check the movie's sound/language:

Contents of download:

739 megabyte in 1 files
Neeku Naku Dash Dash(2012) - 1cd - Dvdscr - www downloadmirchi com avi
  • Neeku Naku Dash Dash(2012) - 1cd - Dvdscr - www.downloadmirchi.com.avi (739 MB)

Comments:


Add report or comment (250 words maximum)

I'd like:  
Type text from captcha: