Our friends

Kourtney and Khloe Take Miami S02E05 Picture Perfect HDTV XviD-M torrent

Torrent info

Date 2012-05-01 00:47:23
Category Series/TV Shows
Hash 88042500d3cac824a0fbe73a8239da46818e78b7
Seeds / Leechs -1 / -1 refresh
Full size 184 MB
Tracker http://tracker.publicbt.com/scrape
Tags kourtney khloe take miami s02e05 picture perfect hdtv xvid

Related torrents

CSI Miami S06E04 2007 SPANiSH HDTV XviD [www TorrentMas com]
CSI Miami 7x01 2008 SPANiSH HDTV XviD (www
CSI Miami 7x02 2008 SPANiSH HDTV XviD [www BajandoSeries com]
HawthoRNe S02E09 Picture Perfect HDTV XviD-FQM [eztv]

Reno 911!: Miami (2007) overview

Genre: comedy, crime Director: Garant, Robert Ben

Description

In 2003, at the U.S. television has started satirical show about police "Reno 911!". And started so successfully, that dragged on for six seasons and full length film. To begin with a few words about the show. Reno 911! tells about the difficult routine of policemen of the small town Reno. Stupid and totally incompetent, they do their job, as they can. All the main characters have bright personality. Not as bright as the Police Academy, but each has its own fad that makes the character fun. Their work - shoplifting, disorderly conduct, fights, etc. All this in a genre of mockumentary with shaky camera and ridiculous comments of heroes. Interestingly, and most importantly with humor. The creators obviously jealous of the success of the picture of the great "Police Academy", which at 80 has become a real cult comedy, and diligently imitated this famous film. The movie is shot in the form of policeman talk show on the air constantly jerking hand-held camera, directly to where the movie characters often refer to their stupid fabrications. The film tells a parody vein of what in America is stupid police ...

Torrent's content info

kourtney.and.khloe.take.miami.s02e05.picture.perfect.hdtv.xvid-momentum.avi

Kourtney and Khloe Take Miami S02E05 Picture Perfect HDTV XviD-M screenshot
  • Screenshot 1
  • Screenshot 2
  • Screenshot 3
  • Screenshot 4
  • Screenshot 5
  • Screenshot 6
  • Screenshot 7
  • Screenshot 8
  • Screenshot 9

Duration: 00:21:38.26, start: 0.000000, bitrate: 1128 kb/s
Stream #0.0: Video: mpeg4, yuv420p, 624x352 [PAR 1:1 DAR 39:22], 29.97 tbr, 29.97 tbn, 29.98 tbc
Stream #0.1: Audio: mp3, 48000 Hz, 2 channels, s16, 128 kb/s

Check the movie's sound/language:

Text sample Text sample from Read This Guide Now.txt

www.TorrentDay.com - Your Gateway To The Scene.

we are the most on-time tracker around the globe, You can download releases whenever they release out by group uploaders.

no Wait Time, no Virus, Very Fast Download Speed.

Join us now at http://www.torrentday.com


Please join us and support TorrentDay.com to grow faster :)


Thank you =)

Come on, Join us at: http://www.Torrentday.com

www.TorrentDay.com
www.TorrentDay.com
www.TorrentDay.com
www.TorrentDay.com




Text sample Text sample from www.Torrentday.com.txt

www.TorrentDay.com - Your Gateway To The Scene.

we are the most on-time tracker around the globe, You can download releases whenever they release out by group uploaders.

no Wait Time, no Virus, Very Fast Download Speed.

Join us now at http://www.torrentday.com


Please join us and support TorrentDay.com to grow faster :)


Thank you =)

Come on, Join us at: http://www.Torrentday.com

www.TorrentDay.com
www.TorrentDay.com
www.TorrentDay.com
www.TorrentDay.com




Text sample Text sample from kourtney.and.khloe.take.miami.s02e05.picture.perfect.hdtv.xvid-momentum.nfo

Kourtney.and.Khloe.Take.Miami.S02E05.Picture.Perfect.HDTV.XviD-MOMENTUM

Release Date.....: 2010-07-12
Filesize.........: 174.7 MB
Runtime..........: 00:21:38
Video ...........: 992 kb/s XviD
Audio ...........: 123 kb/s, 2ch MP3
Frame Size.......: 624x352

Kourtney's post-baby shoot; an argument might change Khloe and Kourtney's
relationship forever.

momentum2011@hush.com




Contents of download:

184 megabyte in 6 files
Kourtney and Khloe Take Miami S02E05 Picture Perfect HDTV XviD-M
  • Kourtney.and.Khloe.Take.Miami.S02E05.Picture.Perfect.HDTV.XviD-MOMENTUM [NO-RAR] - [ www.torrentday.com ]/kourtney.and.khloe.take.miami.s02e05.picture.perfect.hdtv.xvid-momentum.avi (175 MB)
  • Kourtney.and.Khloe.Take.Miami.S02E05.Picture.Perfect.HDTV.XviD-MOMENTUM [NO-RAR] - [ www.torrentday.com ]/kourtney.and.khloe.take.miami.s02e05.picture.perfect.hdtv.xvid-momentum.nfo (0.4 KB)
  • Kourtney.and.Khloe.Take.Miami.S02E05.Picture.Perfect.HDTV.XviD-MOMENTUM [NO-RAR] - [ www.torrentday.com ]/kourtney.and.khloe.take.miami.s02e05.picture.perfect.hdtv.xvid-momentum.sfv (1.2 KB)
  • Kourtney.and.Khloe.Take.Miami.S02E05.Picture.Perfect.HDTV.XviD-MOMENTUM [NO-RAR] - [ www.torrentday.com ]/Read This Guide Now.txt (0.5 KB)
  • Kourtney.and.Khloe.Take.Miami.S02E05.Picture.Perfect.HDTV.XviD-MOMENTUM [NO-RAR] - [ www.torrentday.com ]/Sample/sample-kourtney.and.khloe.take.miami.s02e05.picture.perfect.hdtv.xvid-momentum.avi (9.2 MB)
  • Kourtney.and.Khloe.Take.Miami.S02E05.Picture.Perfect.HDTV.XviD-MOMENTUM [NO-RAR] - [ www.torrentday.com ]/www.Torrentday.com.txt (0.5 KB)

Comments:


Add report or comment (250 words maximum)

I'd like:  
Type text from captcha: