Our friends

Smash.S01E11.HDTV.x264-LOL.mp4 torrent

Torrent info

Date 2012-05-01 00:52:44
Category Series/TV Shows
Hash 6e195407b65de0fa820df68b10c75465cec75514
Seeds / Leechs 32 / 2 refresh
Full size 287 MB
Tracker http://fr33dom.h33t.com:3310/scrape
Tags smash s01e11 hdtv x264
Download – Smash.S01E11.HDTV.x264-LOL.mp4 Download direct – no client needed

Related torrents

Smash.S01E11.HDTV.x264-LOL.mp4
Fast N Loud S01E11 HDTV x264-KILLERS
Titanic Blood and Steel S01E11 HDTV x264-2HD
Chicagolicious.S01E11.HDTV.x264-YesTV

Torrent's content info

Smash.S01E11.HDTV.x264-LOL.mp4

Smash.S01E11.HDTV.x264-LOL.mp4 screenshot
  • Screenshot 1
  • Screenshot 2
  • Screenshot 3
  • Screenshot 4
  • Screenshot 5
  • Screenshot 6
  • Screenshot 7
  • Screenshot 8
  • Screenshot 9

Duration: 00:42:31.59, start: 0.000000, bitrate: 942 kb/s
Stream #0.0(und): Video: h264, yuv420p, 720x404, 821 kb/s, 23.98 fps, 23.98 tbr, 24k tbn, 47.95 tbc
Stream #0.1(und): Audio: aac, 48000 Hz, stereo, s16, 117 kb/s

Check the movie's sound/language:

Contents of download:

287 megabyte in 1 files
Smash.S01E11.HDTV.x264-LOL.mp4
  • Smash.S01E11.HDTV.x264-LOL.mp4 (287 MB)

Comments:


Add report or comment (250 words maximum)

I'd like:  
Type text from captcha: