Our friends

The.Amazing.Race.S20E08.HDTV.x264-LOL.mp4 torrent

Torrent info

Date 2012-05-01 00:53:46
Category Series/TV Shows
Hash 88c58f7c4d3c57f1a199cc0bb480511c5381d973
Seeds / Leechs -1 / -1 refresh
Full size 522 MB
Tracker http://fr33dom.h33t.com:3310/scrape
Tags amazing race s20e08 hdtv x264
Download – The.Amazing.Race.S20E08.HDTV.x264-LOL.mp4 Download direct – no client needed

Related torrents

The Amazing Race S18E03 HDTV XviD-LOL
The Amazing Race S20E05 HDTV x264-LOL[ettv]
The.Amazing.Race.S20E07.HDTV.x264-LOL.mp4
The Amazing Race S20E08 HDTV x264-LOL[ettv]

Torrent's content info

The.Amazing.Race.S20E08.HDTV.x264-LOL.mp4

The.Amazing.Race.S20E08.HDTV.x264-LOL.mp4 screenshot
  • Screenshot 1
  • Screenshot 2
  • Screenshot 3
  • Screenshot 4
  • Screenshot 5
  • Screenshot 6
  • Screenshot 7
  • Screenshot 8
  • Screenshot 9

Duration: 00:43:26.08, start: 0.000000, bitrate: 1679 kb/s
Stream #0.0(und): Video: h264, yuv420p, 720x406, 1540 kb/s, 59.94 fps, 59.94 tbr, 60k tbn, 119.88 tbc
Stream #0.1(und): Audio: aac, 48000 Hz, stereo, s16, 131 kb/s

Check the movie's sound/language:

Contents of download:

522 megabyte in 1 files
The.Amazing.Race.S20E08.HDTV.x264-LOL.mp4
  • The.Amazing.Race.S20E08.HDTV.x264-LOL.mp4 (522 MB)

Comments:


Add report or comment (250 words maximum)

I'd like:  
Type text from captcha: