Our friends

MythBusters.S10E04.HDTV.x264-MOMENTUM.mp4 torrent

Torrent info

Date 2012-05-01 00:54:07
Category Series/TV Shows
Hash 6f8e9ffec546096d43d9b351475fd7e5a7790604
Seeds / Leechs 6 / 1 refresh
Full size 464 MB
Tracker http://fr33dom.h33t.com:3310/scrape
Tags mythbusters s10e04 hdtv x264 momentum
Download – MythBusters.S10E04.HDTV.x264-MOMENTUM.mp4 Download direct – no client needed

Related torrents

Surviving the Cut S01E06 720p HDTV x264-MOMENTUM
Unique Eats S01E07 720p HDTV x264-MOMENTUM
Toddlers and Tiaras S03E02 720p HDTV x264-MOMENTUM
MythBusters.S10E04.HDTV.x264-MOMENTUM.mp4

MythBusters (2003) overview

Description

Could you ever imagine that documentary shows will dawn, and along with interesting information and the setting will please us with non-standard approach and great leading? “MythBusters” - American popular science television program on Discovery Channel. The main characters of the TV show are experts of special effects Jamie Hyneman and Adam Savage, using their skills and experience for the experimental verification of various tales, rumors, urban legends and other creatures of popular culture. Shooting of the show is usually taking place in San Francisco Bay. Each issue of the program focuses on a few urban myths that the creators are taking, or from the Internet or send them by fans. Check many of them were really interesting and spectacular. Many of them include the spectacular explosions and high-quality, which really look great. After all, car bombings, after which of them are only small pieces of metal (not the whole frame, as it happens in the movies) just can’t look bad. Besides, and other legends that do not include explosions are also interesting and exciting. In general, "MythBusters" - it's dangerous mix of science and humor, which results in such a successful and interesting program.

Torrent's content info

MythBusters.S10E04.HDTV.x264-MOMENTUM.mp4

MythBusters.S10E04.HDTV.x264-MOMENTUM.mp4 screenshot
  • Screenshot 1
  • Screenshot 2
  • Screenshot 3
  • Screenshot 4
  • Screenshot 5
  • Screenshot 6
  • Screenshot 7
  • Screenshot 8
  • Screenshot 9

Duration: 00:42:33.13, start: 0.000000, bitrate: 1525 kb/s
Stream #0.0(und): Video: h264, yuv420p, 720x404, 1402 kb/s, 29.97 fps, 29.97 tbr, 120k tbn, 59.94 tbc
Stream #0.1(und): Audio: aac, 48000 Hz, stereo, s16, 117 kb/s

Check the movie's sound/language:

Contents of download:

464 megabyte in 1 files
MythBusters.S10E04.HDTV.x264-MOMENTUM.mp4
  • MythBusters.S10E04.HDTV.x264-MOMENTUM.mp4 (464 MB)

Comments:


Add report or comment (250 words maximum)

I'd like:  
Type text from captcha: