Our friends

On the Bowery 1953 720p BluRay x26-MySiLU [PublicHD] torrent

Torrent info

Date 2012-05-02 02:45:51
Category Movies
Hash 71b73ba0baeb63c0313b421ff823b73c24aa9357
Seeds / Leechs 0 / 2 refresh
Full size 2512 MB
Tracker http://tracker.thepiratebay.org/announce
Tags bowery 1953 720p bluray mysilu publichd

Related torrents

Woman In Love 2011 BluRay 720p x264-MySiLU [PublicHD]
Easy Virtue 2008 BluRay 720p x264-MySiLU [PublicHD]
Sawdust And Tinsel 1953 720p BluRay x264-SONiDO [PublicHD]
The Striking Truth 3D 2010 BluRay 720p x264-MySiLU [PublicHD]

Torrent's content info

On.the.Bowery.1953.Blu-ray.720p.x264.DD20.MySilu.mkv

On the Bowery 1953 720p BluRay x26-MySiLU [PublicHD] screenshot
  • Screenshot 1
  • Screenshot 2
  • Screenshot 3
  • Screenshot 4
  • Screenshot 5
  • Screenshot 6
  • Screenshot 7
  • Screenshot 8
  • Screenshot 9

Duration: 01:05:12.64, start: 0.000000, bitrate: 384 kb/s
Stream #0.0(eng): Video: h264, yuv420p, 940x720 [PAR 1:1 DAR 47:36], 23.98 fps, 24 tbr, 1k tbn, 47.95 tbc
--
title : On.the.Bowery.1953.Blu-ray.720p.x264.DD20.MySilu
Stream #0.1(eng): Audio: ac3, 48000 Hz, stereo, s16, 384 kb/s

Check the movie's sound/language:

Text sample Text sample from Come join us @ PublicHD.ORG.txt

Come Join Us AT

http://publichd.org/

Download High Definition Torrents
Movies / TV Shows / Documentaries




Text sample Text sample from On.the.Bowery.1953.Blu-ray.720p.x264.DD20.MySilu.nfo

--------------------------------------------------------------------------------
-------------------------XXX----------------------------------------------------
----XXXXXXXX------------XXXX---------XXXXXXXXX---------XXXXXXXX--------XXXXXX---
---XXX----XXX------------XXX------------XXXX--------------XXXX-----------XX-----
--XXX-------XX---------------------------XXX--------------XXXX-----------XX-----
--XXXX-------X-------------X-------------XXX---------------XXX-----------XX-----
---XXXXXX---------------XXXX-------------XXX---------------XXX-----------XX-----
----~XXXXXXX-------------XXX-------------XXX---------------XXX-----------XX-----
-------~XXXXXX-----------XXX-------------XXX---------------XXX-----------XX-----
----------~XXX-----------XXX-------------XXX---------------XXX-----------XX-----
--X--------XXXX----------XXX-------------XXX---------------XXX-----------XX-----
--XX-------XXX-----------XXX-------------XXX---------XX----XXXX---------XX------
--XXXXX--XXXX------------XXX------------...

Read full text


Contents of download:

2512 megabyte in 3 files
On the Bowery 1953 720p BluRay x26-MySiLU [PublicHD]
  • On.the.Bowery.1953.720p.BluRay.x26-MySiLU [PublicHD]/Come join us @ PublicHD.ORG.txt (0.1 KB)
  • On.the.Bowery.1953.720p.BluRay.x26-MySiLU [PublicHD]/On.the.Bowery.1953.Blu-ray.720p.x264.DD20.MySilu.mkv (2512 MB)
  • On.the.Bowery.1953.720p.BluRay.x26-MySiLU [PublicHD]/On.the.Bowery.1953.Blu-ray.720p.x264.DD20.MySilu.nfo (3.6 KB)

Comments:


Add report or comment (250 words maximum)

I'd like:  
Type text from captcha: