Our friends

What Really Happened - 2012 May 01 TU [sebaygo1] torrent

Torrent info

Date 2012-05-02 08:45:46
Category Music
Hash 190d4f6991724266636b98ea8009039fdfbc8e1c
Seeds / Leechs -1 / -1 refresh
Full size 21 MB
Tracker http://tracker.thepiratebay.org/announce
Tags what really happened 2012 sebaygo1

Related torrents

What Really Happened - 2010 Feb 01 MO sebaygo1
What Really Happened - 2012 Apr 20 FR [sebaygo1]
What Really Happened - 2012 July 10 TU [sebaygo1]
What Really Happened - 2012 Oct 04 TH [sebaygo1]

Torrent's content info

20 seconds audio samples

What_Really_Happened_2012_05_01__1a_sample.mp3
Audio file info Duration: 00:23:22.39, start: 0.000000, bitrate: 32 kb/s
Stream #0.0: Audio: mp3, 22050 Hz, 1 channels, s16, 32 kb/s
What_Really_Happened_2012_05_01__2a_sample.mp3
Audio file info Duration: 00:22:53.74, start: 0.000000, bitrate: 32 kb/s
Stream #0.0: Audio: mp3, 22050 Hz, 1 channels, s16, 32 kb/s
What_Really_Happened_2012_05_01__2b_sample.mp3
Audio file info Duration: 00:21:51.46, start: 0.000000, bitrate: 32 kb/s
Stream #0.0: Audio: mp3, 22050 Hz, 1 channels, s16, 32 kb/s
What_Really_Happened_2012_05_01__1b_sample.mp3
Audio file info Duration: 00:21:57.26, start: 0.000000, bitrate: 32 kb/s
Stream #0.0: Audio: mp3, 22050 Hz, 1 channels, s16, 32 kb/s

Text sample Text sample from WRH_2012_05_01_show_info.txt.nfo


What Really Happened
- with Mike Rivero -
Tuesday, 01 May 2012


[sebaygo1]



Familiar show themes: US government warmongering, deceit and theft; the steady path to an ever more oppressive police state; wars and threats of wars being used to placate Israel and distract US citizens from economic disaster and the ticking debt timebomb ...and there's much more.



Mike manages to present powerful, credible and persuasive analysis without the screaming and yelling that some hosts seem to require.
Please give his show a listen.




#%#%#%#%#%#%#%#%#%#%#%#%#%#%#%#%#%#%#%#%#%#%#%#%#%#%#
Not able to find a torrent of mine where or when you
expected it?
Check out my torrents blog for info about what I am
uploading, tracker problems, etc..

Some sites will not allow a blogspot URL in an
uploaded torrent's description, so I have included
the blog's web address in a file included with this
torrent...

Read full text


Contents of download:

21 megabyte in 8 files
What Really Happened - 2012 May 01 TU [sebaygo1]
  • What_Really_Happened_2012_05_01TU/folder.jpg (50.1 KB)
  • What_Really_Happened_2012_05_01TU/sebaygo1_TorrentsAndBlogInfo_ver2.pdf (9.3 KB)
  • What_Really_Happened_2012_05_01TU/What_Really_Happened_2012_05_01__1a.mp3 (5.3 MB)
  • What_Really_Happened_2012_05_01TU/What_Really_Happened_2012_05_01__1b.mp3 (5 MB)
  • What_Really_Happened_2012_05_01TU/What_Really_Happened_2012_05_01__2a.mp3 (5.2 MB)
  • What_Really_Happened_2012_05_01TU/What_Really_Happened_2012_05_01__2b.mp3 (5 MB)
  • What_Really_Happened_2012_05_01TU/What_Really_Happened_2012_05_01__playlist.m3u (0.2 KB)
  • What_Really_Happened_2012_05_01TU/WRH_2012_05_01_show_info.txt.nfo (2.9 KB)

Comments:


Add report or comment (250 words maximum)

I'd like:  
Type text from captcha: