Our friends

Logic - Young Sinatra (Undeniable)-2012-MIXFIEND torrent

Torrent info

Date 2012-05-03 00:46:11
Category Music
Hash c82f07060672f1be11cecf61243eabbb81b1c8ee
Seeds / Leechs -1 / -1 refresh
Full size 191 MB
Tracker http://fr33domtracker.h33t.com:3310/scrape
Tags logic young sinatra undeniable 2012 mixfiend

Related torrents

DJ Saint 22 & Young Jeezy - Quarantine-2009-MIXFIEND
Lil Young - Juvenile Delinquent-2009-MIXFIEND
Lil Boosie - Better Believe It Ft Young Jeezy & Webbie-MIXFIEND
DJ Fletch ampamp Kreayshawn - Young Rich ampamp Flashy-2012-MIXFIEND

Torrent's content info

20 seconds audio samples

18 - Young Sinatra III_sample.mp3
Audio file info Duration: 00:03:45.91, start: 0.000000, bitrate: 320 kb/s
Stream #0.0: Audio: mp3, 44100 Hz, 2 channels, s16, 320 kb/s
21 - I Made It_sample.mp3
Audio file info Duration: 00:04:06.41, start: 0.000000, bitrate: 320 kb/s
Stream #0.0: Audio: mp3, 44100 Hz, 2 channels, s16, 320 kb/s
14 - 500 Days Of Summer_sample.mp3
Audio file info Duration: 00:03:45.04, start: 0.000000, bitrate: 320 kb/s
Stream #0.0: Audio: mp3, 44100 Hz, 2 channels, s16, 320 kb/s
06 - Disgusting (Feat C Dot Castro)_sample.mp3
Audio file info Duration: 00:03:19.99, start: 0.000000, bitrate: 320 kb/s
Stream #0.0: Audio: mp3, 44100 Hz, 2 channels, s16, 320 kb/s

Text sample Text sample from Tracklist.txt

Title
01 - Inception
02 - Set The Tone
03 - Dead Presidents Iii
04 - Used To Hate It
05 - No Biggie
06 - Disgusting (Feat C Dot Castro)
07 - Relaxation
08 - Tic Tac Toe
09 - Thirstmail (Skit)
10 - The Spotlight
11 - Life Of A Don
12 - We Get High
13 - Numbers
14 - 500 Days Of Summer
15 - What You Want
16 - Do Ya Like
17 - Aye Girl
18 - Young Sinatra Iii
19 - All Sinatra Everything
20 - Dear God
21 - I Made It
22 - World Wide




Text sample Text sample from Torrent Downloaded & Tracked @ MixtapeTorrent.com & MixFiend.com.txt

MixFiend.com

MixtapeTorrent.com




Contents of download:

191 megabyte in 26 files
Logic - Young Sinatra (Undeniable)-2012-MIXFIEND
  • Logic - Young Sinatra (Undeniable)-2012-MIXFIEND/01 - Inception.mp3 (4.9 MB)
  • Logic - Young Sinatra (Undeniable)-2012-MIXFIEND/02 - Set The Tone.mp3 (6.5 MB)
  • Logic - Young Sinatra (Undeniable)-2012-MIXFIEND/03 - Dead Presidents III.mp3 (11 MB)
  • Logic - Young Sinatra (Undeniable)-2012-MIXFIEND/04 - Used To Hate It.mp3 (10 MB)
  • Logic - Young Sinatra (Undeniable)-2012-MIXFIEND/05 - No Biggie.mp3 (4.6 MB)
  • Logic - Young Sinatra (Undeniable)-2012-MIXFIEND/06 - Disgusting (Feat C Dot Castro).mp3 (7.6 MB)
  • Logic - Young Sinatra (Undeniable)-2012-MIXFIEND/07 - Relaxation.mp3 (9.2 MB)
  • Logic - Young Sinatra (Undeniable)-2012-MIXFIEND/08 - Tic Tac Toe.mp3 (10 MB)
  • Logic - Young Sinatra (Undeniable)-2012-MIXFIEND/09 - ThirstMail (Skit).mp3 (3.7 MB)
  • Logic - Young Sinatra (Undeniable)-2012-MIXFIEND/10 - The Spotlight.mp3 (7.2 MB)
  • Logic - Young Sinatra (Undeniable)-2012-MIXFIEND/11 - Life Of A Don.mp3 (7.5 MB)
  • Logic - Young Sinatra (Undeniable)-2012-MIXFIEND/12 - We Get High.mp3 (10 MB)
  • Logic - Young Sinatra (Undeniable)-2012-MIXFIEND/13 - Numbers.mp3 (9.2 MB)
  • Logic - Young Sinatra (Undeniable)-2012-MIXFIEND/14 - 500 Days Of Summer.mp3 (8.6 MB)
  • Logic - Young Sinatra (Undeniable)-2012-MIXFIEND/15 - What You Want.mp3 (9 MB)
  • Logic - Young Sinatra (Undeniable)-2012-MIXFIEND/16 - Do Ya Like.mp3 (8.3 MB)
  • Logic - Young Sinatra (Undeniable)-2012-MIXFIEND/17 - Aye Girl.mp3 (10 MB)
  • Logic - Young Sinatra (Undeniable)-2012-MIXFIEND/18 - Young Sinatra III.mp3 (8.6 MB)
  • Logic - Young Sinatra (Undeniable)-2012-MIXFIEND/19 - All Sinatra Everything.mp3 (12 MB)
  • Logic - Young Sinatra (Undeniable)-2012-MIXFIEND/20 - Dear God.mp3 (7.2 MB)
  • Logic - Young Sinatra (Undeniable)-2012-MIXFIEND/21 - I Made It.mp3 (9.4 MB)
  • Logic - Young Sinatra (Undeniable)-2012-MIXFIEND/22 - World Wide.mp3 (18 MB)
  • Logic - Young Sinatra (Undeniable)-2012-MIXFIEND/Cover.jpg (20.4 KB)
  • Logic - Young Sinatra (Undeniable)-2012-MIXFIEND/MixtapeTorrent.com.url (0.1 KB)
  • Logic - Young Sinatra (Undeniable)-2012-MIXFIEND/Torrent Downloaded & Tracked @ MixtapeTorrent.com & MixFiend.com.txt (0 KB)
  • Logic - Young Sinatra (Undeniable)-2012-MIXFIEND/Tracklist.txt (0.4 KB)

Comments:


Add report or comment (250 words maximum)

I'd like:  
Type text from captcha: