Our friends

Jay Sean - Me Against Myself [2004] RnB torrent

Torrent info

Date 2012-05-03 00:47:48
Category Music
Hash 886424998b67372252aba2eaacf7341411f46c9f
Seeds / Leechs 1 / 0 refresh
Full size 97 MB
Tracker http://tracker.openbittorrent.com/scrape
Tags sean against myself 2004
Download – Jay Sean - Me Against Myself [2004] RnB Download direct – no client needed

Related torrents

Air Supply - Platinum & Gold Collection (2004)
Machuca (Spanish) (Eng sub) (2004)
CD Cracking Uncovered - Protection Against Unsanctioned CD Copying (2004) - allbooksfree tk
Jay Sean - Me Against Myself [2004] RnB

Torrent's content info

20 seconds audio samples

17-Jay Sean - Who Is Kamaljit _sample.mp3
Audio file info Duration: 00:04:48.91, start: 0.000000, bitrate: 232 kb/s
Stream #0.0: Audio: mp3, 44100 Hz, 2 channels, s16, 192 kb/s
07-Jay Sean - Come with Me _sample.mp3
Audio file info Duration: 00:04:10.74, start: 0.000000, bitrate: 232 kb/s
Stream #0.0: Audio: mp3, 44100 Hz, 2 channels, s16, 192 kb/s
02-Jay Sean - Eyes On You _sample.mp3
Audio file info Duration: 00:03:10.64, start: 0.000000, bitrate: 236 kb/s
Stream #0.0: Audio: mp3, 44100 Hz, 2 channels, s16, 192 kb/s
14-Jay Sean - Interlude (Irony Skit) _sample.mp3
Audio file info Duration: 00:01:01.28, start: 0.000000, bitrate: 234 kb/s
Stream #0.0: Audio: mp3, 44100 Hz, 2 channels, s16, 192 kb/s

Text sample Text sample from Jay Sean ~ Me Against Myself - DS.nfo

Read full text


Contents of download:

97 megabyte in 19 files
Jay Sean - Me Against Myself [2004] RnB
  • Jay Sean ~ Me Against Myself - DS/01-Jay Sean - Intro (Balcony Skit).mp3 (1.6 MB)
  • Jay Sean ~ Me Against Myself - DS/02-Jay Sean - Eyes On You .mp3 (5.4 MB)
  • Jay Sean ~ Me Against Myself - DS/03-Jay Sean - One Night.mp3 (6.7 MB)
  • Jay Sean ~ Me Against Myself - DS/04-Jay Sean - Don't Rush .mp3 (6.3 MB)
  • Jay Sean ~ Me Against Myself - DS/05-Jay Sean - On and On.mp3 (6 MB)
  • Jay Sean ~ Me Against Myself - DS/06-Jay Sean - Stolen.mp3 (6.7 MB)
  • Jay Sean ~ Me Against Myself - DS/07-Jay Sean - Come with Me .mp3 (7 MB)
  • Jay Sean ~ Me Against Myself - DS/08-Jay Sean - Holding On .mp3 (7.5 MB)
  • Jay Sean ~ Me Against Myself - DS/09-Jay Sean - I Believe in You .mp3 (5.7 MB)
  • Jay Sean ~ Me Against Myself - DS/10-Jay Sean - Meri Jaan .mp3 (5.1 MB)
  • Jay Sean ~ Me Against Myself - DS/11-Jay Sean - Man's World .mp3 (6.7 MB)
  • Jay Sean ~ Me Against Myself - DS/12-Jay Sean - Dance With You .mp3 (4.8 MB)
  • Jay Sean ~ Me Against Myself - DS/13-Jay Sean - One Minute .mp3 (6.7 MB)
  • Jay Sean ~ Me Against Myself - DS/14-Jay Sean - Interlude (Irony Skit) .mp3 (1.7 MB)
  • Jay Sean ~ Me Against Myself - DS/15-Jay Sean - Me Against Myself .mp3 (5 MB)
  • Jay Sean ~ Me Against Myself - DS/16-Jay Sean - You Don't Know Me.mp3 (6.7 MB)
  • Jay Sean ~ Me Against Myself - DS/17-Jay Sean - Who Is Kamaljit .mp3 (8 MB)
  • Jay Sean ~ Me Against Myself - DS/J_sean_Me_Against_Myself.jpg (21.6 KB)
  • Jay Sean ~ Me Against Myself - DS/Jay Sean ~ Me Against Myself - DS.nfo (2.1 KB)

Comments:


Add report or comment (250 words maximum)

I'd like:  
Type text from captcha: