Our friends

Alexander ONeal - Greatest Hits [ChattChitto RG] torrent

Torrent info

Date 2012-05-03 04:45:48
Category Music
Hash e1399ca047d2040be82848c1271a609c03de1902
Seeds / Leechs -1 / -1 refresh
Full size 178 MB
Tracker http://tracker.thepiratebay.org/announce
Tags alexander oneal greatest hits chattchitto

Related torrents

Jars Of Clay-Greatest Hits (2008) [Mp3]
Bangles-Greatest Hits (Canus Music by Jade)
Geri Halliwell - Greatest Hits [2006] [Pop] [www file24ever com]
Snow Patrol – Greatest Hits [ChattChitto RG]

Alexander (2004) overview

Genre: adventure, drama, action, biography, romance, history, war Director: Stone, Oliver (I)

Description

Oliver Stone has shot the historical epic about the great Macedonian military leader "Alexander", returned to film a third time, bringing to light the final published version of the film «Alexander Revisited: The Final Cut». 40 years after the death of Alexander the elderly Ptolemy, one of the closest allies of Macedon, after his death became viceroy of Egypt, and decides to tell written story of victories of the great commander. For eight years, the army of Alexander the Great moved to the East to the shores of the world ocean. Having conquered the West and Central Asia, the Macedonian first stepped onto the enigmatic and mysterious land of ancient India. On this he dreamed in his childhood, listening to the myths of Troy, the exploits of Hercules and Apollo. The main task of the director could not show all the great and incredible battles in the campaign of Alexander of Macedonia to the east, making a sweeping picture of the gunman, but rather to open the other side of the coin, showing the commander is not expected as a Hollywood template, and as a person, a man of ambiguous and quite extraordinary. On the shoulders of thousands who have taken the lives of soldiers, thousands of miles, crossed the march, thousands of liters of blood of slain enemies, thousands of emotions and fears and huge desires and dreams.

Torrent's content info

20 seconds audio samples

08 Hearsay '89_sample.mp3
Audio file info Duration: 00:03:42.53, start: 0.000000, bitrate: 321 kb/s
Stream #0.0: Audio: mp3, 44100 Hz, 2 channels, s16, 320 kb/s
09 (What Can I Say) To Make You Love Me_sample.mp3
Audio file info Duration: 00:04:31.33, start: 0.000000, bitrate: 321 kb/s
Stream #0.0: Audio: mp3, 44100 Hz, 2 channels, s16, 320 kb/s
12 A Broken Heart Can Mend_sample.mp3
Audio file info Duration: 00:03:45.48, start: 0.000000, bitrate: 321 kb/s
Stream #0.0: Audio: mp3, 44100 Hz, 2 channels, s16, 320 kb/s
13 What Is This Thing Called Love_sample.mp3
Audio file info Duration: 00:06:07.90, start: 0.000000, bitrate: 320 kb/s
Stream #0.0: Audio: mp3, 44100 Hz, 2 channels, s16, 320 kb/s

Text sample Text sample from www.ChattChitto.com.nfo

When You Give Something To Somebody,
-It May Not Be Of much Value -
But Just The Gesture That You Give, Satisfies Tremendously.

www.ChattChitto.com | Making Life A "Byte" Easier!
Torrents & One-Click File-Hosting Downloads

When Family Comes Together.
In this world it's not what we take up, but what we give up, that makes us rich. (Henry Ward Beecher)

www.ChattChitto.com

@@@@@@@@@@@@@@@@@@@@@@@@@@@@@@@@@@@@@@@@@@@@@@@@@@@@@@@@@@@@@@@@@@@@@@@@@@@@@@@@@@@@@@@@@@@@@@@@@@@@@@@@@@@@@@@@@@@@@@@@@@
@@@@@@@@@@@@@@@@@@@@@@@@@@@@@@@@@@@@@@@@@@@@@@@@@@@@@@@@@@@8OO8O8@@@@@@@@@@@@@@@@@@@@@@@@@@@@@@@@@@@@@@@@@@@@@@@@@@@@@@@@@
@@@@@@@@@@@@@@@@@@@@@@@@@@@@@@@@@@@@@@@@@@@@@@8. cO@@@@@@@@@@@@@@@@@@@@@@@@@@@@@@@@@@@@@@@@@@@@
@@@@@@@@@@@@@@@@@@@@@@@@@@@@@@@@@@@@@@@@c :oO8@@@@@@@@@@@@@Co. O@@@@@@@@@@@@@@@@@@@@@@@@@@@@@@@@@@@@@@
@@@@@@@@@@@@@@@@@@@@@@@@@@@@@@@@@@@@ :@@@@@@@@@@@@@@@@@@@@@@@@@@@@@@@@@O: ...

Read full text


Contents of download:

178 megabyte in 18 files
Alexander ONeal - Greatest Hits [ChattChitto RG]
  • Alexander O'Neal - Greatest Hits [ChattChitto RG]/Alexander O'Neal - Greatest Hits [ChattChitto RG] Cover.png (92.1 KB)
  • Alexander O'Neal - Greatest Hits [ChattChitto RG]/ChattChitto RG.nfo (12.4 KB)
  • Alexander O'Neal - Greatest Hits [ChattChitto RG]/Greatest Hits/01 Never New Love Like This.mp3 (12 MB)
  • Alexander O'Neal - Greatest Hits [ChattChitto RG]/Greatest Hits/02 Innocent - Alex 9000 - Innocent II.mp3 (24 MB)
  • Alexander O'Neal - Greatest Hits [ChattChitto RG]/Greatest Hits/03 Fake.mp3 (9.3 MB)
  • Alexander O'Neal - Greatest Hits [ChattChitto RG]/Greatest Hits/04 All True Man.mp3 (12 MB)
  • Alexander O'Neal - Greatest Hits [ChattChitto RG]/Greatest Hits/05 Criticize (Single).mp3 (9.4 MB)
  • Alexander O'Neal - Greatest Hits [ChattChitto RG]/Greatest Hits/06 Saturday Love (Cherrelle featuring Alexander O'Neal).mp3 (12 MB)
  • Alexander O'Neal - Greatest Hits [ChattChitto RG]/Greatest Hits/07 If You Were Here Tonight.mp3 (14 MB)
  • Alexander O'Neal - Greatest Hits [ChattChitto RG]/Greatest Hits/08 Hearsay '89.mp3 (8.5 MB)
  • Alexander O'Neal - Greatest Hits [ChattChitto RG]/Greatest Hits/09 (What Can I Say) To Make You Love Me.mp3 (10 MB)
  • Alexander O'Neal - Greatest Hits [ChattChitto RG]/Greatest Hits/10 The Lovers.mp3 (11 MB)
  • Alexander O'Neal - Greatest Hits [ChattChitto RG]/Greatest Hits/11 What's Missing.mp3 (13 MB)
  • Alexander O'Neal - Greatest Hits [ChattChitto RG]/Greatest Hits/12 A Broken Heart Can Mend.mp3 (8.6 MB)
  • Alexander O'Neal - Greatest Hits [ChattChitto RG]/Greatest Hits/13 What Is This Thing Called Love.mp3 (14 MB)
  • Alexander O'Neal - Greatest Hits [ChattChitto RG]/Greatest Hits/14 You Were Meant To Be My Love (Not My Girl) (Single).mp3 (10 MB)
  • Alexander O'Neal - Greatest Hits [ChattChitto RG]/Greatest Hits/15 Love Makes No Sense (Single).mp3 (10 MB)
  • Alexander O'Neal - Greatest Hits [ChattChitto RG]/www.ChattChitto.com.nfo (7.9 KB)

Comments:


Add report or comment (250 words maximum)

I'd like:  
Type text from captcha: