Our friends

La Mia Vita è uno Zoo 2011 iTALiAN BRRip XviD-GPT torrent

Torrent info

Date 2012-05-08 00:50:45
Category Movies
Hash 38e25b19cfa815b379d0d5000ff1db1f8000f3da
Seeds / Leechs -1 / -1 refresh
Full size 792 MB
Tracker http://tracker.publicbt.com/scrape
Tags vita 2011 italian brrip xvid

Related torrents

Dead Space Aftermath 2011 720p BRRip XviD-FLAWL3SS BOZX
La.Peggior.Settimana.Della.Mia.Vita.2011.iTALiAN.RESYNC.COMPLETE.MD.CAM.XviD-iMCMT
The Change Up Cambio Vita 2011 iTALiAN UNRATED MD BRRiP x264-TrTd_CREW.mkv
Sherlock Holmes Gioco di Ombre 2011 iTALiAN BRRip XviD-GPT

Torrent's content info

La.Mia.Vita.è.uno.Zoo.2011.iTALiAN.BRRip.XviD-GPT.avi

La Mia Vita è uno Zoo 2011 iTALiAN BRRip XviD-GPT screenshot
  • Screenshot 1
  • Screenshot 2
  • Screenshot 3
  • Screenshot 4
  • Screenshot 5
  • Screenshot 6
  • Screenshot 7
  • Screenshot 8
  • Screenshot 9

Duration: 02:03:54.43, start: 0.000000, bitrate: 893 kb/s
Stream #0.0: Video: mpeg4, yuv420p, 624x336 [PAR 1:1 DAR 13:7], 23.98 tbr, 23.98 tbn, 23.98 tbc
Stream #0.1: Audio: mp3, 48000 Hz, 2 channels, s16, 128 kb/s

Check the movie's sound/language:

Contents of download:

792 megabyte in 1 files
La Mia Vita è uno Zoo 2011 iTALiAN BRRip XviD-GPT
  • La.Mia.Vita.è.uno.Zoo.2011.iTALiAN.BRRip.XviD-GPT.avi (792 MB)

Comments:


Add report or comment (250 words maximum)

I'd like:  
Type text from captcha: