Our friends

Shirley Bassey - Goldfinger (20 Great Songs) @flac torrent

Torrent info

Date 2012-05-08 00:52:15
Category Music
Hash e16e9bbed59267bf810b09ccbb56f492194dd865
Seeds / Leechs -1 / -1 refresh
Full size 406 MB
Tracker http://tracker.bittorrent.am/scrape
Tags shirley bassey goldfinger great songs flac

Related torrents

Shirley Bassey.Never Never Never.
Shirley Bassey - Live at the Royal Festival Hall, London (June 1996) 320kbps
U2 - Rock Score - 5 Great Songs, [PDF - ENG][TNTVillage.scambioetico.org] (6S/1L)
Billie Holiday XXL - Great Diva Great Songs 10CD (1-3)[mp3@256:320][covers, lables] (0S/0L)

Torrent's content info

20 seconds audio samples

08 - Once In A lifetime.flac_sample.mp3
Audio file info Duration: 00:02:25.33, bitrate: 843 kb/s
Stream #0.0: Audio: flac, 44100 Hz, 2 channels, s16
13 - If And When.flac_sample.mp3
Audio file info Duration: 00:02:54.49, bitrate: 784 kb/s
Stream #0.0: Audio: flac, 44100 Hz, 2 channels, s16
14 - I've Got You Under My Skin.flac_sample.mp3
Audio file info Duration: 00:03:35.33, bitrate: 790 kb/s
Stream #0.0: Audio: flac, 44100 Hz, 2 channels, s16
02 - Send In The Clowns.flac_sample.mp3
Audio file info Duration: 00:03:22.82, bitrate: 694 kb/s
Stream #0.0: Audio: flac, 44100 Hz, 2 channels, s16

Contents of download:

406 megabyte in 28 files
Shirley Bassey - Goldfinger (20 Great Songs) @flac
  • Shirley Bassey - Goldfinger (20 Great Songs)/01 - Goldfinger.flac (18 MB)
  • Shirley Bassey - Goldfinger (20 Great Songs)/02 - Send In The Clowns.flac (17 MB)
  • Shirley Bassey - Goldfinger (20 Great Songs)/03 - I (Who Have Nothing).flac (13 MB)
  • Shirley Bassey - Goldfinger (20 Great Songs)/04 - Climb Ev'ry Mountain.flac (18 MB)
  • Shirley Bassey - Goldfinger (20 Great Songs)/05 - All By Myself.flac (22 MB)
  • Shirley Bassey - Goldfinger (20 Great Songs)/06 - On A Wonderful Day Like Today.flac (17 MB)
  • Shirley Bassey - Goldfinger (20 Great Songs)/07 - Somewhere.flac (16 MB)
  • Shirley Bassey - Goldfinger (20 Great Songs)/08 - Once In A lifetime.flac (15 MB)
  • Shirley Bassey - Goldfinger (20 Great Songs)/09 - The Shadow Of Your Smile.flac (22 MB)
  • Shirley Bassey - Goldfinger (20 Great Songs)/10 - This Masquerade.flac (30 MB)
  • Shirley Bassey - Goldfinger (20 Great Songs)/11 - And I Love You So.flac (21 MB)
  • Shirley Bassey - Goldfinger (20 Great Songs)/12 - The Way We Were.flac (17 MB)
  • Shirley Bassey - Goldfinger (20 Great Songs)/13 - If And When.flac (16 MB)
  • Shirley Bassey - Goldfinger (20 Great Songs)/14 - I've Got You Under My Skin.flac (20 MB)
  • Shirley Bassey - Goldfinger (20 Great Songs)/15 - As Long As He Needs Me.flac (16 MB)
  • Shirley Bassey - Goldfinger (20 Great Songs)/16 - New York Medley- New York, New York.flac (21 MB)
  • Shirley Bassey - Goldfinger (20 Great Songs)/17 - Bridge Over Troubled Water.flac (30 MB)
  • Shirley Bassey - Goldfinger (20 Great Songs)/18 - Just One Of Those Things.flac (18 MB)
  • Shirley Bassey - Goldfinger (20 Great Songs)/19 - Solitaire.flac (25 MB)
  • Shirley Bassey - Goldfinger (20 Great Songs)/20 - The Party's Over.flac (18 MB)
  • Shirley Bassey - Goldfinger (20 Great Songs)/back.jpg (2.5 MB)
  • Shirley Bassey - Goldfinger (20 Great Songs)/cd.jpg (1.9 MB)
  • Shirley Bassey - Goldfinger (20 Great Songs)/front.jpg (3.8 MB)
  • Shirley Bassey - Goldfinger (20 Great Songs)/Goldfinger (20 Great Songs).cue (3.5 KB)
  • Shirley Bassey - Goldfinger (20 Great Songs)/inside 1.jpg (2.1 MB)
  • Shirley Bassey - Goldfinger (20 Great Songs)/inside 2.jpg (4.1 MB)
  • Shirley Bassey - Goldfinger (20 Great Songs)/Shirley Bassey - Goldfinger (20 Great Songs).log (8.1 KB)
  • Shirley Bassey - Goldfinger (20 Great Songs)/Shirley Bassey - Goldfinger (20 Great Songs).m3u (1.6 KB)

Comments:


Add report or comment (250 words maximum)

I'd like:  
Type text from captcha: