Our friends

HorribleSubs Dusk Maiden of Amnesia - 05 720p.mkv torrent

Torrent info

Date 2012-05-11 00:44:46
Category Anime
Hash edc0736ee310cea470890aeb8cc0d2411829da79
Seeds / Leechs -1 / -1 refresh
Full size 323 MB
Tracker http://tracker.openbittorrent.com/scrape
Tags horriblesubs dusk maiden amnesia 720p

Related torrents

[Hadena] Dusk Maiden of Amnesia - 01 [10bit][720p][15E1B4A1] mkv
[HorribleSubs] Dusk Maiden of Amnesia - 08 [1080p].mkv
[HorribleSubs] Dusk Maiden of Amnesia - 08 [480p].mkv
[HorribleSubs] Dusk Maiden of Amnesia - 12 [720p] mkv

Torrent's content info

[HorribleSubs] Dusk Maiden of Amnesia - 05 [720p].mkv

HorribleSubs Dusk Maiden of Amnesia - 05 720p.mkv screenshot
  • Screenshot 1
  • Screenshot 2
  • Screenshot 3
  • Screenshot 4
  • Screenshot 5
  • Screenshot 6
  • Screenshot 7
  • Screenshot 8
  • Screenshot 9

Duration: 00:23:42.10, start: 0.000000, bitrate: N/A
Stream #0.0: Video: h264, yuv420p, 1280x720 [PAR 1:1 DAR 16:9], 30.30 fps, 29.97 tbr, 1k tbn, 59.94 tbc
Stream #0.1: Audio: aac, 44100 Hz, stereo, s16
Stream #0.2: Subtitle: 0x0000
Stream #0.3: Attachment: 0x0000

Check the movie's sound/language:

Contents of download:

323 megabyte in 1 files
HorribleSubs Dusk Maiden of Amnesia - 05 720p.mkv
  • [HorribleSubs] Dusk Maiden of Amnesia - 05 [720p].mkv (323 MB)

Comments:


Add report or comment (250 words maximum)

I'd like:  
Type text from captcha: