Our friends

[did-043] - Lars Leonhard - Infected Ep torrent

Torrent info

Date 2012-05-11 00:52:32
Category Music
Hash 9c38ee54e7d228d77e91674076495bb88ae1068c
Seeds / Leechs 0 / 0 refresh
Full size 47 MB
Tracker http://tracker.mininova.org/scrape
Tags lars leonhard infected
Download – [did-043] - Lars Leonhard - Infected Ep Download direct – no client needed

Related torrents

MC Lars Collected Masterpeices
Mental Traning - Sjalvbilds- och Malbildstraning - Lars-Eric Une
infected mushroom
Lars Eriksson - Alla l├ątar

Torrent's content info

did-043_Lars_Leonhard_Infected_ep.zip

  • did-043_Lars_Leonhard_Infected_ep/04.Lars_Leonhard_Infect.mp3 (14 MB)
  • did-043_Lars_Leonhard_Infected_ep/01.Lars_Leonhard_Rainy_Day.mp3 (10 MB)
  • did-043_Lars_Leonhard_Infected_ep/master_cover.jpg (0.3 MB)
  • did-043_Lars_Leonhard_Infected_ep/03.Lars_Leonhard_Konkret.mp3 (11 MB)
  • did-043_Lars_Leonhard_Infected_ep/Info_release.txt (0.9 KB)
  • did-043_Lars_Leonhard_Infected_ep/02.Lars_Leonhard_Olearia.mp3 (12 MB)

20 seconds audio samples

03.Lars_Leonhard_Konkret_sample.mp3
Audio file info Duration: 00:04:49.62, start: 0.000000, bitrate: 320 kb/s
Stream #0.0: Audio: mp3, 44100 Hz, 2 channels, s16, 320 kb/s
04.Lars_Leonhard_Infect_sample.mp3
Audio file info Duration: 00:05:56.18, start: 0.000000, bitrate: 320 kb/s
Stream #0.0: Audio: mp3, 44100 Hz, 2 channels, s16, 320 kb/s
02.Lars_Leonhard_Olearia_sample.mp3
Audio file info Duration: 00:05:12.17, start: 0.000000, bitrate: 320 kb/s
Stream #0.0: Audio: mp3, 44100 Hz, 2 channels, s16, 320 kb/s
01.Lars_Leonhard_Rainy_Day_sample.mp3
Audio file info Duration: 00:04:29.38, start: 0.000000, bitrate: 320 kb/s
Stream #0.0: Audio: mp3, 44100 Hz, 2 channels, s16, 320 kb/s

Text sample Text sample from Info_release.txt

Lars Leonhard - Infected Ep

Label: Deepindub.org

Catalog#: [did043]

Format: 4 x File, MP3, EP, 320 kbps

Country: Italy

Released: 13 Sep 2010

Genre: Electronic

Style: Progressive House


Tracklist:

1 Rainy Day 4:20
2 Olearia 5:03
3 Konkret 4:41
4 Infect 5:47


Notes:


Released with Attribution-Noncommercial-No Derivative Works 2.5 Italy License.
Total duration : 19:08.

Follow Deepindub on :

Itunes podcasts directory :
http://itunes.apple.com/us/podcast/deepindub-netlabel-deephouse/id310002560


Facebook Fans Page
http://www.facebook.com/deepindub.org

Facebook account
http://www.facebook.com/netlabel.deepindub

Twitter:
http://twitter.com/deepindub

YouTube:
http://www.youtube.com/deepindub2

Soundcloud :
http://soundcloud.com/deepindub

Mininova:
http://www.mininova.org/user/deepindub-org

Web site :
http://www.deepindub.org




Text sample Text sample from Distributed by Mininova.txt

This release was distributed using Mininova Content Distribution (CD).
Check http://www.mininova.org/distribution for more information.

By using Mininova CD, producers can easily share their content.
Mininova takes care of the distribution process, e.g. by providing the required bandwidth.




Contents of download:

47 megabyte in 2 files
[did-043] - Lars Leonhard - Infected Ep
  • [did-043] - Lars Leonhard - Infected Ep/Distributed by Mininova.txt (0.3 KB)
  • [did-043] - Lars Leonhard - Infected Ep/did-043_Lars_Leonhard_Infected_ep.zip (47 MB)

Comments:


Add report or comment (250 words maximum)

I'd like:  
Type text from captcha: