Our friends

Cutting Through the Matrix - 2012 May 08 TU sebaygo1 torrent

Torrent info

Date 2012-05-11 12:45:25
Category Other
Hash 556060b31d6da62cd99714bb7ddc6319cf156914
Seeds / Leechs -1 / -1 refresh
Full size 11 MB
Tracker http://tracker.publicbt.com/scrape
Tags cutting through matrix 2012 sebaygo1

Related torrents

Alan Watt - Cutting Through The Matrix - week 38, 2008
Alan Watt - Cutting Through The Matrix - week 1-26, 2008
Cutting Through the Matrix - Sep 27 TU [sebaygo1]
Cutting Through the Matrix - Dec 21 WE [sebaygo1]

Torrent's content info

20 seconds audio samples

CTtM-AlanWatt_2012_05_08_a_sample.mp3
Audio file info Duration: 00:24:02.59, start: 0.000000, bitrate: 32 kb/s
Stream #0.0: Audio: mp3, 22050 Hz, 1 channels, s16, 32 kb/s
CTtM-AlanWatt_2012_05_08_b_sample.mp3
Audio file info Duration: 00:22:46.99, start: 0.000000, bitrate: 32 kb/s
Stream #0.0: Audio: mp3, 22050 Hz, 1 channels, s16, 32 kb/s

Text sample Text sample from CTtM-AlanWatt_show-info_2012_05_08.txt.nfo

.

Cutting Through the Matrix
= with Alan Watt =
Tuesday, 08 May 2012


[sebaygo1]


See my blog -- [sebaygo1.blogspot.com] -- for a detailed listing of the new stories discussed in this episode.


This audio is from an RBN podcast file recorded live from the Republic Broadcasting Network stream. Network commercials have been edited out.


Visit Alan Watt's main website -- www.cuttingthroughthematrix.com -- to download podcasts, read show summaries, and purchase books, DVDs and special audio recordings by him.

Official websites include:
cuttingthroughthematrix.com
cuttingthroughthematrix.net
cuttingthroughthematrix.org
cuttingthroughthematrix.us
cuttingthroughthematrix.ca
alanwattcuttingthroughthematrix.ca
alanwattsentientsentinel.eu



#%#%#%#%#%#%#%#%#%#%#%#%#%#%#%#%#%#%#%#%#%#%#%#%#%#%#
Not able to find a torrent of mine where or when you
expected it?
Check out my torrents blog for info about what I am
uploading, tracker problems, etc..

Some sites will not allow a...

Read full text


Contents of download:

11 megabyte in 5 files
Cutting Through the Matrix - 2012 May 08 TU sebaygo1
  • CTtM-AlanWatt_2012_05_08TU/CTtM-AlanWatt_2012_05_08_a.mp3 (5.5 MB)
  • CTtM-AlanWatt_2012_05_08TU/CTtM-AlanWatt_2012_05_08_b.mp3 (5.2 MB)
  • CTtM-AlanWatt_2012_05_08TU/CTtM-AlanWatt_2012_05_08_playlist.m3u (0.1 KB)
  • CTtM-AlanWatt_2012_05_08TU/CTtM-AlanWatt_show-info_2012_05_08.txt.nfo (3.1 KB)
  • CTtM-AlanWatt_2012_05_08TU/sebaygo1_TorrentsAndBlogInfo_ver2.pdf (9.3 KB)

Comments:


Add report or comment (250 words maximum)

I'd like:  
Type text from captcha: