Our friends

Austin Powers: International Man of Mystery 1997 1080p BDRip H264 AAC - KiNGDOM torrent

Torrent info

Date 2012-05-17 00:46:50
Category Movies
Hash c539aa93342b590a915a9a5fb75b9f2afdf316ee
Seeds / Leechs 12 / 8 refresh
Full size 3132 MB
Tracker http://fr33dom.h33t.com:3310/scrape
Tags austin powers international mystery 1997 1080p bdrip h264 kingdom

Related torrents

Austin Powers: International Man of Mystery 1997 1080p BDRip H264 AAC - KiNGDOM
Austin Powers - International Man of Mystery (1997)
Austin Powers Shagadelic Box (1997-2002) BDRip 1080p DTS- HighCo
Disney's Hercules 1997 1080p BDRip H264 AAC - KiNGDOM

Torrent's content info

Austin Powers 1.mp4

Austin Powers: International Man of Mystery 1997 1080p BDRip H264 AAC - KiNGDOM screenshot
  • Screenshot 1
  • Screenshot 2
  • Screenshot 3
  • Screenshot 4
  • Screenshot 5
  • Screenshot 6
  • Screenshot 7
  • Screenshot 8
  • Screenshot 9

Duration: 01:29:35.49, start: 0.000000, bitrate: 4815 kb/s
Stream #0.0(und): Video: h264, yuv420p, 1920x816 [PAR 1:1 DAR 40:17], 4492 kb/s, 23.98 fps, 23.98 tbr, 96k tbn, 47.95 tbc
Stream #0.1(eng): Audio: aac, 48000 Hz, 5.1, s16, 320 kb/s

Text sample Text sample from Torrent downloaded from AhaShare.com.txt

Share the fun!!!
Torrent downloaded from AhaShare.com.txt




Text sample Text sample from tracked_by_h33t_com.txt

tracked by www.h33t.com




Text sample Text sample from Torrent Downloaded from SilverTorrents.me.txt

Torrent Downloaded from SilverTorrents.me




Text sample Text sample from Torrent downloaded from Demonoid.com.txt

Torrent downloaded from http://www.Demonoid.com




Text sample Text sample from Torrent Downloaded from TorrentState.com.txt

Torrent Downloaded from:

www.TorrentState.com




Text sample Text sample from 5 Ways To Download Torrents Anonymously.txt

5 Ways To Download Torrents Anonymously

Thanks to Torrentfreak

Link: http://torrentfreak.com/5-ways-to-download-torrents-anonymously-100819/


With anti-piracy outfits and dubious law-firms policing BitTorrent swarms at an increasing rate, many Bittorrent users are looking for ways to hide their identities from the outside world.
To accommodate this demand we’ll give an overview of 5 widely used privacy services.

With an increasing number of BitTorrent users seeking solutions to hide their identities from the outside world, privacy services have seen a spike in customers recently.
Below we’ve listed some of the most-used services that allow BitTorrent users to hide their IP-addresses from the public.

The services discussed in this post range from totally free to costing several dollars a month.
The general rule is that free services are generally slower or have other restrictions, while paid ones can get you the same speeds as your regular connection would.


VPN (strongly...

Read full text


Contents of download:

3132 megabyte in 11 files
Austin Powers: International Man of Mystery 1997 1080p BDRip H264 AAC - KiNGDOM
  • Austin Powers - International Man of Mystery 1997 1080p BDRip H264 AAC - KiNGDOM/Poster/Austin Powers 1.jpg (86.8 KB)
  • Austin Powers - International Man of Mystery 1997 1080p BDRip H264 AAC - KiNGDOM/Sample/Austin Powers 1 Sample.mp4 (46 MB)
  • Austin Powers - International Man of Mystery 1997 1080p BDRip H264 AAC - KiNGDOM/Subtitles/5 Ways To Download Torrents Anonymously.txt (4.1 KB)
  • Austin Powers - International Man of Mystery 1997 1080p BDRip H264 AAC - KiNGDOM/Subtitles/English SDH.srt (0.2 MB)
  • Austin Powers - International Man of Mystery 1997 1080p BDRip H264 AAC - KiNGDOM/Subtitles/Torrent downloaded from AhaShare.com.txt (0.1 KB)
  • Austin Powers - International Man of Mystery 1997 1080p BDRip H264 AAC - KiNGDOM/Subtitles/Torrent downloaded from Demonoid.com.txt (0 KB)
  • Austin Powers - International Man of Mystery 1997 1080p BDRip H264 AAC - KiNGDOM/Subtitles/Torrent Downloaded from SilverTorrents.me.txt (0 KB)
  • Austin Powers - International Man of Mystery 1997 1080p BDRip H264 AAC - KiNGDOM/Subtitles/Torrent Downloaded from TorrentState.com.txt (0 KB)
  • Austin Powers - International Man of Mystery 1997 1080p BDRip H264 AAC - KiNGDOM/Subtitles/tracked_by_h33t_com.txt (0 KB)
  • Austin Powers - International Man of Mystery 1997 1080p BDRip H264 AAC - KiNGDOM/Austin Powers 1.mp4 (3086 MB)
  • Austin Powers - International Man of Mystery 1997 1080p BDRip H264 AAC - KiNGDOM/Kingdom RG.nfo (11.5 KB)

Comments:


Add report or comment (250 words maximum)

I'd like:  
Type text from captcha: