Our friends

Roger Dodger 2002 720p BRRip x264-MgB torrent

Torrent info

Date 2012-05-17 00:47:28
Category Movies
Hash 38ad524593587dcb74aafe06bc943efcddb5e351
Seeds / Leechs 5 / 19 refresh
Full size 1270 MB
Tracker http://fr33domtracker.h33t.com:3310/scrape
Tags roger dodger 2002 720p brrip x264
Download – Roger Dodger 2002 720p BRRip x264-MgB Download direct – no client needed

Related torrents

Jonah A VeggieTales Movie [2002] 720p BRRiP x264 - ExtraTorrentR
Mr Deeds (2002) 720p BrRip x264 - 620mb - YIFY
Stuart Little 2 (2002) 720p BrRip x264 - 550MB - YIFY
Roger Dodger 2002 720p BRRip x264-MgB

Roger Dodger (2002) overview

Genre: drama, comedy Director: Kidd, Dylan

Description

This "black" comedy tells history of advertising specialist Roger, altering women, such as gloves, which gives advice on how to obtain the favor of the opposite sex, his minor nephew, who did not give up her virginity. The film gives the viewer the opportunity to spend 24 hours watching their wildly adventurous in New York. The two eternal opposing camps of men and women for centuries are an infinite game, each by its own rules, but united by one goal. Some are trying to hasten the end of the party called flirting, and deliver checkmate the Queen, so she surrendered. Other logical denouement retard competition, testing the patience and interest on the strength of the enemy's schemes and stratagems ways hold the attention of the second player in this game reaching the rank of champions in empty games played in a draw. The film is about sex, as a point of refraction in the relations between the sexes, represented the views of the two men is the highest aspiration for physical convergence, not always coinciding with the psychological unity.

Torrent's content info

Roger Dodger 2002 720p BRRip x264 -MgB.mp4

Roger Dodger 2002 720p BRRip x264-MgB screenshot
  • Screenshot 1
  • Screenshot 2
  • Screenshot 3
  • Screenshot 4
  • Screenshot 5
  • Screenshot 6
  • Screenshot 7
  • Screenshot 8
  • Screenshot 9

Duration: 01:45:35.22, start: 0.000000, bitrate: 1672 kb/s
Stream #0.0(und): Video: h264, yuv420p, 1280x720 [PAR 1:1 DAR 16:9], 1221 kb/s, 23.98 fps, 23.98 tbr, 24k tbn, 47.95 tbc
Stream #0.1(und): Audio: aac, 48000 Hz, 5.1, s16, 447 kb/s

Text sample Text sample from Torrent Downloaded From ExtraTorrent.com.txt

Torrent Downloaded From ExtraTorrent.com





- The biggest torrent community



- No fake torrents, All torrents checked by our Moderators



- The latest torrent releases



- The most helpful members and site admins



- Be updated with the latest news in the p2p world with ExtraTorrent



- The best forum community in the p2p world




Contents of download:

1270 megabyte in 10 files
Roger Dodger 2002 720p BRRip x264-MgB
  • Roger Dodger 2002 720p BRRip x264 -MgB/Screens/1.png (1.2 MB)
  • Roger Dodger 2002 720p BRRip x264 -MgB/Screens/2.png (1 MB)
  • Roger Dodger 2002 720p BRRip x264 -MgB/Screens/3.png (1 MB)
  • Roger Dodger 2002 720p BRRip x264 -MgB/Screens/4.png (1.1 MB)
  • Roger Dodger 2002 720p BRRip x264 -MgB/Screens/5.png (1.1 MB)
  • Roger Dodger 2002 720p BRRip x264 -MgB/Screens/6.png (1 MB)
  • Roger Dodger 2002 720p BRRip x264 -MgB/Cover.PNG (0.4 MB)
  • Roger Dodger 2002 720p BRRip x264 -MgB/English.srt (76.6 KB)
  • Roger Dodger 2002 720p BRRip x264 -MgB/Roger Dodger 2002 720p BRRip x264 -MgB.mp4 (1263 MB)
  • Roger Dodger 2002 720p BRRip x264 -MgB/Torrent Downloaded From ExtraTorrent.com.txt (0.3 KB)

Comments:


Add report or comment (250 words maximum)

I'd like:  
Type text from captcha: