Our friends

UFC On Fuel Korean Zombie vs Poirier Pre Fight Show 1080p HDTV x torrent

Torrent info

Date 2012-05-17 05:46:05
Category Series/TV Shows
Hash efd5d007009f14efe0b2a9f9269c035584e1902e
Seeds / Leechs 17 / 71 refresh
Full size 1275 MB
Tracker http://tracker.thepiratebay.org/announce
Tags fuel korean zombie poirier fight show 1080p hdtv

Related torrents

UFC On Fuel Korean Zombie vs Poirier Pre Fight Show HDTV x264-RU
UFC On Fuel Korean Zombie vs Poirier HDTV x264-RUDOS
UFC On Fuel Korean Zombie vs Poirier 1080p HDTV x264-RUDOS
UFC On Fuel Korean Zombie vs Poirier Pre Fight Show 1080p HDTV x

Torrent's content info

UFC.On.Fuel.Korean.Zombie.vs.Poirier.Pre.Fight.Show.1080p.HDTV.x264-RUDOS.mp4

UFC On Fuel Korean Zombie vs Poirier Pre Fight Show 1080p HDTV x screenshot
  • Screenshot 1
  • Screenshot 2
  • Screenshot 3
  • Screenshot 4
  • Screenshot 5
  • Screenshot 6
  • Screenshot 7
  • Screenshot 8
  • Screenshot 9

Duration: 00:44:54.76, start: 0.000000, bitrate: 3967 kb/s
Stream #0.0(und): Video: h264, yuv420p, 1920x1080, 3699 kb/s, 29.97 fps, 29.97 tbr, 30k tbn, 59.94 tbc
Stream #0.1(und): Audio: aac, 48000 Hz, stereo, s16, 189 kb/s

Check the movie's sound/language:

Text sample Text sample from Read Me.txt

---------------------------------------------------------------------------------

SSSSSSSSSSSSSSS 444444444 AAA
SS:::::::::::::::S 4::::::::4 A:::A
S:::::SSSSSS::::::S 4:::::::::4 A:::::A
S:::::S SSSSSSS 4::::44::::4 A:::::::A
S:::::S 4::::4 4::::4 A:::::::::A
S:::::S 4::::4 4::::4 A:::::A:::::A
S::::SSSS 4::::4 4::::4 A:::::A A:::::A
SS::::::SSSSS 4::::444444::::444 A:::::A A:::::A
SSS::::::::SS 4::::::::::::::::4 A:::::A A:::::A
SSSSSS::::S4444444444:::::444 A:::::AAAAAAAAA:::::A
S:::::S...

Read full text


Contents of download:

1275 megabyte in 2 files
UFC On Fuel Korean Zombie vs Poirier Pre Fight Show 1080p HDTV x
  • UFC.On.Fuel.Korean.Zombie.vs.Poirier.Pre.Fight.Show.1080p.HDTV.x264-RUDOS/Read Me.txt (2.9 KB)
  • UFC.On.Fuel.Korean.Zombie.vs.Poirier.Pre.Fight.Show.1080p.HDTV.x264-RUDOS/UFC.On.Fuel.Korean.Zombie.vs.Poirier.Pre.Fight.Show.1080p.HDTV.x264-RUDOS.mp4 (1275 MB)

Comments:


Add report or comment (250 words maximum)

I'd like:  
Type text from captcha: