Our friends

Poison Ivy 1992 iNTERNAL DVDRip XviD-EXViDiNT torrent

Torrent info

Date 2012-05-17 14:46:40
Category Movies
Hash dad1fbf5d3dc8f23daccab8490475ddea8ca7eea
Seeds / Leechs -1 / -1 refresh
Full size 702 MB
Tracker http://tracker.thepiratebay.org/announce
Tags poison 1992 internal dvdrip xvid exvidint
Download – Poison Ivy 1992 iNTERNAL DVDRip XviD-EXViDiNT Download direct – no client needed

Related torrents

The Suburbans 1999 iNTERNAL DVDRip XviD-EXViDiNT
Howards End 1992 iNTERNAL DVDRip XviD-iLS
Hot Pursuit 1987 iNTERNAL DVDRip XviD-EXViDiNT
Losing Isaiah 1995 iNTERNAL DVDRip XviD-EXViDiNT

Torrent's content info

exvid-poisonivy1.avi

Poison Ivy 1992 iNTERNAL DVDRip XviD-EXViDiNT screenshot
  • Screenshot 1
  • Screenshot 2
  • Screenshot 3
  • Screenshot 4
  • Screenshot 5
  • Screenshot 6
  • Screenshot 7
  • Screenshot 8
  • Screenshot 9

Duration: 01:32:54.11, start: 0.000000, bitrate: 1056 kb/s
Stream #0.0: Video: mpeg4, yuv420p, 640x352 [PAR 1:1 DAR 20:11], PAR 45056:45055 DAR 16384:9011, 23.98 tbr, 23.98 tbn, 23.98 tbc
Stream #0.1: Audio: mp3, 48000 Hz, 2 channels, s16, 32 kb/s

Check the movie's sound/language:

Text sample Text sample from READ this before playing the Movie.txt

www.Torrenting.com - a special Tracker only for Movies.

we are the most on-time tracker around the globe, You can download releases whenever they release out by group uploaders.

no Wait Time, no Virus, Very Fast Download Speed.

Find us at http://www.torrenting.com

Support Torrenting.com to grow faster :)

Thank you =)

Join The Legends at: http://www.Torrenting.com

www.Torrenting.com
www.Torrenting.com
www.Torrenting.com
www.Torrenting.com




Text sample Text sample from www.Torrenting.com.txt

www.Torrenting.com - a special Tracker only for Movies.

we are the most on-time tracker around the globe, You can download releases whenever they release out by group uploaders.

no Wait Time, no Virus, Very Fast Download Speed.

Find us at http://www.torrenting.com

Support Torrenting.com to grow faster :)

Thank you =)

Join The Legends at: http://www.Torrenting.com

www.Torrenting.com
www.Torrenting.com
www.Torrenting.com
www.Torrenting.com




Contents of download:

702 megabyte in 3 files
Poison Ivy 1992 iNTERNAL DVDRip XviD-EXViDiNT
  • [ www.Torrenting.com ] - Poison.Ivy.1992.iNTERNAL.DVDRip.XviD-EXViDiNT/exvid-poisonivy1.avi (702 MB)
  • [ www.Torrenting.com ] - Poison.Ivy.1992.iNTERNAL.DVDRip.XviD-EXViDiNT/READ this before playing the Movie.txt (0.5 KB)
  • [ www.Torrenting.com ] - Poison.Ivy.1992.iNTERNAL.DVDRip.XviD-EXViDiNT/www.Torrenting.com.txt (0.5 KB)

Comments:


Add report or comment (250 words maximum)

I'd like:  
Type text from captcha: