Our friends

Chamak Challo Chel Chabeli - (Rowdy Rathore) - (Hindi 2012) - 720p - [HP] torrent

Torrent info

Date 2012-05-19 00:51:39
Category Music
Hash eea8451f5e43229f87a85e90457f896485782588
Seeds / Leechs 0 / 0 refresh
Full size 65 MB
Tracker http://fr33domtracker.h33t.com:3310/scrape
Tags chamak challo chel chabeli rowdy rathore hindi 2012 720p

Related torrents

Chinta Ta Ta - (Rowdy Rathore) - (Hindi 2012) - 720p - [HP]
Chamak Challo Chel Chabeli (Rowdy Rathore) Official Song - x264 - 720p HD - AAC--AbhinavRocks {{-HKRG-}}
Dhadang Dhang - Rowdy Rathore (Hindi 2012) - 720p - AC3 - [HP]
Rowdy Rathore (Hindi 2012) DVDScr x264 TDM -=MTR=-

Torrent's content info

Chamak Challo Chel Chabeli - - (Rowdy Rathore) - (Hindi 2012) - 720p - [HP].avi

Chamak Challo Chel Chabeli - (Rowdy Rathore) - (Hindi 2012) - 720p - [HP] screenshot
  • Screenshot 1
  • Screenshot 2
  • Screenshot 3
  • Screenshot 4
  • Screenshot 5
  • Screenshot 6
  • Screenshot 7
  • Screenshot 8
  • Screenshot 9

Duration: 00:02:05.47, start: 0.000000, bitrate: 4361 kb/s
Stream #0.0: Video: mpeg4, yuv420p, 1280x576 [PAR 1:1 DAR 20:9], 25 tbr, 25 tbn, 25 tbc
Stream #0.1: Audio: mp3, 48000 Hz, 2 channels, s16, 320 kb/s

Check the movie's sound/language:

Contents of download:

65 megabyte in 1 files
Chamak Challo Chel Chabeli - (Rowdy Rathore) - (Hindi 2012) - 720p - [HP]
  • Chamak Challo Chel Chabeli - - (Rowdy Rathore) - (Hindi 2012) - 720p - [HP].avi (65 MB)

Comments:


Add report or comment (250 words maximum)

I'd like:  
Type text from captcha: