Our friends

Journey 2 The Mysterious Island 2012 720p BRRip x264 Feel-Free torrent

Torrent info

Date 2012-05-20 16:46:14
Category Movies
Hash adcef35c503716de297ccaf860f838d0851c0613
Seeds / Leechs -1 / -1 refresh
Full size 2303 MB
Tracker http://tracker.thepiratebay.org/announce
Tags journey mysterious island 2012 720p brrip x264 feel free

Related torrents

The Woman In Black 2012 720p BRRip x264 Feel-Free
Journey 2 The Mysterious Island (2012) 720p BRRip Nl-EN subs DRT
Journey 2 The Mysterious Island (2012) 720p BRrip_sujaidr_TMRG
Journey.2.The.Mysterious.Island.2012.720p.BDRip.x264.AC3-Zoo

Journey 2: The Mysterious Island (2012) overview

Genre: adventure, sci-fi, action, fantasy, comedy, family Director: Peyton, Brad

Description

 The continuation of highly successful 2008 Journey to the Center of the Earth is brought with almost the same scale. However, now Sean performed again by Josh Hutcherson is a full-grown teenager who gets a mysterious sign presumably from his grandfather. To find out the truth Sean steals through research center to get the signal. However, he is caught by the police and is taken home by his step-father. At home Sean tells Hank about the strange signal and willing to get close with his step-son Hank is very helpful to find out the truth. Together they discover that this signal was made from a mysterious island which was described in many novels by different authors. However, this island is missing on the map, but Sean is desperate to find out the truth. So, Hank asks his wife to let them travel to the island though both of them Hank and his wife are very skeptical about their success. However, to get close to his step-son Hank and Sean set off to find whatever they have to find there…

Torrent's content info

Journey.2.The.Mysterious.Island.2012.720p.BRRip.x264.Feel-Free.mp4

Journey 2 The Mysterious Island 2012 720p BRRip x264 Feel-Free screenshot
  • Screenshot 1
  • Screenshot 2
  • Screenshot 3
  • Screenshot 4
  • Screenshot 5
  • Screenshot 6
  • Screenshot 7
  • Screenshot 8
  • Screenshot 9

Duration: 01:34:10.75, start: 0.000000, bitrate: 3406 kb/s
Stream #0.0(und): Video: h264, yuv420p, 1280x720 [PAR 1:1 DAR 16:9], 2961 kb/s, 23.98 fps, 23.98 tbr, 24k tbn, 47.95 tbc
Stream #0.1(und): Audio: aac, 48000 Hz, 5.1, s16, 441 kb/s

Text sample Text sample from Torrent downloaded from Extratorrent.com.txt

Torrent downloaded from http://extratorrent.com/


Make sure its a real Feel-Free release @ http://extratorrent.com

Thanks to all who promotes release Feel-Free !!!




Text sample Text sample from Journey.2.The.Mysterious.Island.2012.720p.BRRip.x264.Feel-Free.nfo

[img]http://img571.imageshack.us/img571/7510/402343bas1nu8x.jpg[/img]
[img]http://iceimg.com/i/0b/9a/01d08a4869.jpg[/img]


Genre:Action | Adventure | Comedy
Language:English
IMDb:[url]http://www.imdb.com/title/tt1397514/[/url]
Source:1080p.BluRay.X264.RoSubbed-AMIABLE Thanks!
Encoder:Tony

Format : MPEG-4
Format profile : Base Media
Codec ID : isom
File size : 2.24 GiB
Duration : 1h 34mn
Overall bit rate mode : Variable
Overall bit rate : 3 406 Kbps

Video
ID : 1
Format : AVC
Format/Info : Advanced Video Codec
Format profile : High@L5.1
Format settings, CABAC : Yes
Format settings, ReFrames : 3 frames
Codec ID ...

Read full text


Contents of download:

2303 megabyte in 9 files
Journey 2 The Mysterious Island 2012 720p BRRip x264 Feel-Free
  • Journey.2.The.Mysterious.Island.2012.720p.BRRip.x264.Feel-Free/01d08a4869.jpg (0.6 MB)
  • Journey.2.The.Mysterious.Island.2012.720p.BRRip.x264.Feel-Free/Journey.2.The.Mysterious.Island.2012.720p.BRRip.x264.Feel-Free.mp4 (2295 MB)
  • Journey.2.The.Mysterious.Island.2012.720p.BRRip.x264.Feel-Free/Journey.2.The.Mysterious.Island.2012.720p.BRRip.x264.Feel-Free.nfo (3.3 KB)
  • Journey.2.The.Mysterious.Island.2012.720p.BRRip.x264.Feel-Free/Torrent downloaded from Extratorrent.com.txt (0.2 KB)
  • Journey.2.The.Mysterious.Island.2012.720p.BRRip.x264.Feel-Free/vlcsnap-2012-05-19-14h28m22s143.png (1.4 MB)
  • Journey.2.The.Mysterious.Island.2012.720p.BRRip.x264.Feel-Free/vlcsnap-2012-05-19-14h28m43s0.png (1.4 MB)
  • Journey.2.The.Mysterious.Island.2012.720p.BRRip.x264.Feel-Free/vlcsnap-2012-05-19-14h29m21s192.png (2.1 MB)
  • Journey.2.The.Mysterious.Island.2012.720p.BRRip.x264.Feel-Free/vlcsnap-2012-05-19-14h29m28s44.png (0.7 MB)
  • Journey.2.The.Mysterious.Island.2012.720p.BRRip.x264.Feel-Free/vlcsnap-2012-05-19-14h30m45s26.png (1.9 MB)

Comments:


Add report or comment (250 words maximum)

I'd like:  
Type text from captcha: