Our friends

Stash House (2012) VODRip NL subs DutchReleaseTeam torrent

Torrent info

Date 2012-05-21 04:46:41
Category Movies
Hash 1475b2f0ea84f1a38e4380f77a63a4ef8ad563cc
Seeds / Leechs -1 / -1 refresh
Full size 1216 MB
Tracker http://tracker.thepiratebay.org/announce
Tags stash house 2012 vodrip subs dutchreleaseteam

Related torrents

Safe House 2012 - Arabic Subs Hardcoded
Stash House 2012 480p BRRip XviD AC3-PTpOWeR
Stash House 2012 720p BRRip XviD AC3-ASSASSiNS
Stash House 2012 DVDRip English [Accipiter]

Torrent's content info

Stash House (2012) VODRip NL subs DutchReleaseTeam.avi

Stash House (2012) VODRip NL subs DutchReleaseTeam screenshot
  • Screenshot 1
  • Screenshot 2
  • Screenshot 3
  • Screenshot 4
  • Screenshot 5
  • Screenshot 6
  • Screenshot 7
  • Screenshot 8
  • Screenshot 9

Duration: 01:39:22.07, start: 0.000000, bitrate: 1691 kb/s
Stream #0.0: Video: mpeg4, yuv420p, 720x400 [PAR 1:1 DAR 9:5], 23.98 tbr, 23.98 tbn, 23.98 tbc
Stream #0.1: Audio: ac3, 48000 Hz, 5.1, s16, 384 kb/s

Check the movie's sound/language:

Text sample Text sample from DutchReleaseTeam NFO.txt

Deze film werd u aangeboden door: Koedje, releaser van het Dutchrelease-Team

Indien je nog niet met ons bekend bent, twijfel niet en stap gratis en geheel vrijblijvend in....

Heb je net als ons, erg veel interesse in films en alles daaromheen?
Kom dan eens langs op: http://www.hetmultimediacafe.nl

De gezelligste plek waar je als eerste de beste reviews kunt lezen van alle nieuwe films, series, muziek, games en computer programma's.

MVG het Dutchrelease-Team




Text sample Text sample from Torrent downloaded from Demonoid.me - kopie.txt

Torrent downloaded from http://www.Demonoid.me




Contents of download:

1216 megabyte in 10 files
Stash House (2012) VODRip NL subs DutchReleaseTeam
  • Stash House (2012) VODRip NL subs DutchReleaseTeam/Stash House (2012) VODRip NL subs DutchReleaseTeam.avi (1202 MB)
  • Stash House (2012) VODRip NL subs DutchReleaseTeam/sample.avi (14 MB)
  • Stash House (2012) VODRip NL subs DutchReleaseTeam/Koedje.png (0.1 MB)
  • Stash House (2012) VODRip NL subs DutchReleaseTeam/Multimediacafe.png (0.1 MB)
  • Stash House (2012) VODRip NL subs DutchReleaseTeam/Screenshot4.jpg (30.2 KB)
  • Stash House (2012) VODRip NL subs DutchReleaseTeam/Screenshot1.jpg (28.3 KB)
  • Stash House (2012) VODRip NL subs DutchReleaseTeam/Screenshot2.jpg (20.7 KB)
  • Stash House (2012) VODRip NL subs DutchReleaseTeam/Screenshot3.jpg (18.7 KB)
  • Stash House (2012) VODRip NL subs DutchReleaseTeam/DutchReleaseTeam NFO.txt (0.5 KB)
  • Stash House (2012) VODRip NL subs DutchReleaseTeam/Torrent downloaded from Demonoid.me - kopie.txt (0 KB)

Comments:


Add report or comment (250 words maximum)

I'd like:  
Type text from captcha: