Our friends

Thurgood 2011 RETAiL DVDRip XViD-VASKITTU torrent

Torrent info

Date 2012-05-21 08:46:57
Category Movies
Hash 72f902cb2d0b2901b4009e9a9320c1b57a8dc9f4
Seeds / Leechs -1 / -1 refresh
Full size 700 MB
Tracker http://tracker.thepiratebay.org/announce
Tags thurgood 2011 retail dvdrip xvid vaskittu
Download – Thurgood 2011 RETAiL DVDRip XViD-VASKITTU Download direct – no client needed

Related torrents

The Dark Knight .[2008].RETAIL.DVDRIP.XVID.[Eng]-DUQA
The Lost Bladesman 2011 RETAIL DVDRip XviD AC3-ViSiON
The Artist 2011 COMPLETE DVDRip XviD-VASKITTU
The Artist 2011 COMPLETE DVDRip XviD AC3-VASKITTU

Torrent's content info

Thurgood.2011.RETAiL.DVDRip.XViD-VASKITTU.avi

Thurgood 2011 RETAiL DVDRip XViD-VASKITTU screenshot
  • Screenshot 1
  • Screenshot 2
  • Screenshot 3
  • Screenshot 4
  • Screenshot 5
  • Screenshot 6
  • Screenshot 7
  • Screenshot 8
  • Screenshot 9

Duration: 01:45:35.99, start: 0.000000, bitrate: 926 kb/s
Stream #0.0: Video: mpeg4, yuv420p, 640x368 [PAR 1:1 DAR 40:23], 23.98 tbr, 23.98 tbn, 23.98 tbc
Stream #0.1: Audio: mp3, 48000 Hz, 2 channels, s16, 128 kb/s

Check the movie's sound/language:

Text sample Text sample from READ this before playing the Movie.txt

www.Torrenting.com - a special Tracker only for Movies.

we are the most on-time tracker around the globe, You can download releases whenever they release out by group uploaders.

no Wait Time, no Virus, Very Fast Download Speed.

Find us at http://www.torrenting.com

Support Torrenting.com to grow faster :)

Thank you =)

Join The Legends at: http://www.Torrenting.com

www.Torrenting.com
www.Torrenting.com
www.Torrenting.com
www.Torrenting.com




Text sample Text sample from Thurgood.2011.RETAiL.DVDRip.XViD-VASKITTU.nfo


V A S K I T T U P R E S E N T S






[ R E L E A S E ]

Thurgood.2011.RETAiL.DVDRip.XViD-VASKITTU



SOURCE: Thurgood 2011 WS NTSC DVDR-NoRBiT
RUNTiME: 01:45:36
SUBTiTLES: NO
IMDB: http://www.imdb.com/title/tt1844811/

[ V i D E O ]

ViDEO BiTRATE: 2pass @ 792 kbps
ViDEO CODEC: XViD
RESOLUTiON: 640 x 368


[ A U D i O ]

AUDiO BiTRATE: CBR @ 128 kbps
AUDiO CODEC: MP3 (2 channels)
LANGUAGE: ENGLiSH


[ R i P P E R / E N C O D E R ]

VASKITTU







Anything...

Read full text


Text sample Text sample from www.Torrenting.com.txt

www.Torrenting.com - a special Tracker only for Movies.

we are the most on-time tracker around the globe, You can download releases whenever they release out by group uploaders.

no Wait Time, no Virus, Very Fast Download Speed.

Find us at http://www.torrenting.com

Support Torrenting.com to grow faster :)

Thank you =)

Join The Legends at: http://www.Torrenting.com

www.Torrenting.com
www.Torrenting.com
www.Torrenting.com
www.Torrenting.com




Contents of download:

700 megabyte in 4 files
Thurgood 2011 RETAiL DVDRip XViD-VASKITTU
  • [ www.Torrenting.com ] - Thurgood.2011.RETAiL.DVDRip.XViD-VASKITTU/READ this before playing the Movie.txt (0.5 KB)
  • [ www.Torrenting.com ] - Thurgood.2011.RETAiL.DVDRip.XViD-VASKITTU/Thurgood.2011.RETAiL.DVDRip.XViD-VASKITTU.avi (700 MB)
  • [ www.Torrenting.com ] - Thurgood.2011.RETAiL.DVDRip.XViD-VASKITTU/Thurgood.2011.RETAiL.DVDRip.XViD-VASKITTU.nfo (1.2 KB)
  • [ www.Torrenting.com ] - Thurgood.2011.RETAiL.DVDRip.XViD-VASKITTU/www.Torrenting.com.txt (0.5 KB)

Comments:


Add report or comment (250 words maximum)

I'd like:  
Type text from captcha: