Our friends

WWE Over The Limit 20th May 2012 HDTV x264-Sir Paul torrent

Torrent info

Date 2012-05-21 11:45:48
Category Series/TV Shows
Hash 7f55d51d31403a6219d60f0eeaeccbfb6ddb39e8
Seeds / Leechs 392 / 11 refresh
Full size 1497 MB
Tracker http://tracker.thepiratebay.org/announce
Tags over limit 20th 2012 hdtv x264 paul

Related torrents

WWE Over The Limit 20th May 2012 HDTV x264-Sir Paul
WWE Over The Limit 2012 HDTV x264-RUDOS [PublicHD]
WWE.Over.The.Limit.2012.HDTV.x264-RUDOS
WWE.Over.The.Limit.20th.May.2012.HDTV.x264-Sir.Paul [x]

Torrent's content info

WWE.Over.The.Limit.20th.May.2012.HDTV.x264-Sir.Paul.AVI

WWE Over The Limit 20th May 2012 HDTV x264-Sir Paul screenshot
  • Screenshot 1
  • Screenshot 2
  • Screenshot 3
  • Screenshot 4
  • Screenshot 5
  • Screenshot 6
  • Screenshot 7
  • Screenshot 8
  • Screenshot 9

Duration: 02:49:07.36, start: 0.000000, bitrate: 1237 kb/s
Stream #0.0: Video: h264, yuv420p, 624x352, 25 fps, 25 tbr, 25 tbn, 50 tbc
Stream #0.1: Audio: mp3, 48000 Hz, 2 channels, s16, 128 kb/s

Check the movie's sound/language:

Text sample Text sample from Read Me.txt

---------------------------------------------------------------------------------

SSSSSSSSSSSSSSS 444444444 AAA
SS:::::::::::::::S 4::::::::4 A:::A
S:::::SSSSSS::::::S 4:::::::::4 A:::::A
S:::::S SSSSSSS 4::::44::::4 A:::::::A
S:::::S 4::::4 4::::4 A:::::::::A
S:::::S 4::::4 4::::4 A:::::A:::::A
S::::SSSS 4::::4 4::::4 A:::::A A:::::A
SS::::::SSSSS 4::::444444::::444 A:::::A A:::::A
SSS::::::::SS 4::::::::::::::::4 A:::::A A:::::A
SSSSSS::::S4444444444:::::444 A:::::AAAAAAAAA:::::A
S:::::S...

Read full text


Contents of download:

1497 megabyte in 2 files
WWE Over The Limit 20th May 2012 HDTV x264-Sir Paul
  • WWE.Over.The.Limit.20th.May.2012.HDTV.x264-Sir.Paul/Read Me.txt (3.2 KB)
  • WWE.Over.The.Limit.20th.May.2012.HDTV.x264-Sir.Paul/WWE.Over.The.Limit.20th.May.2012.HDTV.x264-Sir.Paul.AVI (1497 MB)

Comments:


Add report or comment (250 words maximum)

I'd like:  
Type text from captcha: