Our friends

Scooby Doo 13 Spooky Tales From Around The World DVDRip XViD-UNi torrent

Torrent info

Date 2012-05-22 04:45:53
Category Movies
Hash 2f4dcee163d82fcbde5c15a7a611cfbc0f76e244
Seeds / Leechs -1 / -1 refresh
Full size 1510 MB
Tracker http://tracker.thepiratebay.org/announce
Tags scooby spooky tales from around world dvdrip xvid

Related torrents

Scooby.Doo.Och.Pirat.Mysteriet.SWEDiSH.DVDRip.XviD-BBB
U2 Vertigo Live From Chicago 2005 [DvdRip] [Xvid] [www EliteTorrent net] By DiVxHE avi
Escape.From.Sobibor.SWESUB.DVDRip.XviD
Scooby Doo 13 Spooky Tales From Around The World 2012 DVDRip XVi

Scooby-Doo (2002) overview

Genre: adventure, fantasy, comedy, family, mystery Director: Gosnell, Raja

Description

Two years later, after the company collapsed because of the Secret contradictions arising Scooby-Doo and his quick-witted fellow, who discovered more than one offense, Fred, Daphne, Shaggy and Velma, one by one call to the sinister island, so they began investigating a series of paranormal phenomena occurring in the Spring Break. Fearing that his incredibly popular resort might actually be inhabited by ghosts, the owner of Sinister Island Mondavarius Emile tries to reunite the legendary detective to solve the riddle of those as a supernatural mystery is not scared of all the rest of students. Scooby-Doo and his team have to overcome personal differences and take a fresh look at the imaginary vampires and ghosts unrealistic. And all this in order to unravel the case, save themselves and possibly, the whole world. The plot, as the children's comedy - a good one. The team must do the next thing, but as it turned out, all team members left it to each other, because they did not suit the tensions between.

Torrent's content info

Scooby.Doo.13.Spooky.Tales.From.Around.The.World.DVDRip.XViD-UNiQUE.avi

Scooby Doo 13 Spooky Tales From Around The World DVDRip XViD-UNi screenshot
  • Screenshot 1
  • Screenshot 2
  • Screenshot 3
  • Screenshot 4
  • Screenshot 5
  • Screenshot 6
  • Screenshot 7
  • Screenshot 8
  • Screenshot 9

Duration: 02:24:48.55, start: 0.000000, bitrate: 1457 kb/s
Stream #0.0: Video: mpeg4, yuv420p, 720x400 [PAR 1:1 DAR 9:5], PAR 5:6 DAR 3:2, 23.98 tbr, 23.98 tbn, 23.98 tbc
Stream #0.1: Audio: ac3, 48000 Hz, mono, s16, 192 kb/s

Check the movie's sound/language:

Text sample Text sample from info.txt

www.crazy-torrent.com/web

_ _ _ _ _ _
| | | | | |
|/\| |/\| |/\|,
~ ~ ~ ~ ~ ~~

_, __, _, ___,
/ ` |_) /_\ ` /
\ , | \ | | /
~ ~ ~ ~ ~ ~~~

, _ ___ _, __,
\ | | / \ |_)
\| ~~ | \ / | \
) ~ ~ ~ ~
~'
__, __, _, _ ___
|_) |_ |\ | |
| \ | | \| | ,
~ ~ ~~~ ~ ~ ~ ~

_, _, _, _
/ ` / \ |\/|
\ , \ / | |
~ ~ ~ ~

wwww.crazy-torrent.com/web
............................

series_

http://www.scenespeeds.com/

...........................

LATINO FILM AUDIO SUBTITLES [PELICULAS EN AUDIO LATINO SUBTITULADAS]

http://www.central-torrent.com/web/




Contents of download:

1510 megabyte in 2 files
Scooby Doo 13 Spooky Tales From Around The World DVDRip XViD-UNi
  • Scooby.Doo.13.Spooky.Tales.From.Around.The.World.DVDRip.XViD-UNiQUE/info.txt (0.7 KB)
  • Scooby.Doo.13.Spooky.Tales.From.Around.The.World.DVDRip.XViD-UNiQUE/Scooby.Doo.13.Spooky.Tales.From.Around.The.World.DVDRip.XViD-UNiQUE.avi (1510 MB)

Comments:


Add report or comment (250 words maximum)

I'd like:  
Type text from captcha: