Our friends

The Agonist - Prisoners (2012) torrent

Torrent info

Date 2012-06-04 17:46:17
Category Music
Hash 692e38a462c5f19abe1f57ff01f5504968f0563c
Seeds / Leechs 19 / 0 refresh
Full size 134 MB
Tracker http://tracker.thepiratebay.org/announce
Tags agonist prisoners 2012
Download – The Agonist - Prisoners (2012) Download direct – no client needed

Related torrents

The Hyperdimensional Election of Barack Obama and 2012
Nostradamus 2012 DVDRip XviD-TBS(No Rars)--cgaurav™--
The Agonist - Prisoners (2012)
The Agonist - Prisoners (2012) [mp3@320]

Torrent's content info

20 seconds audio samples

07. Lonely Solipsist_sample.mp3
Audio file info Duration: 00:03:45.43, start: 0.000000, bitrate: 320 kb/s
Stream #0.0: Audio: mp3, 44100 Hz, 2 channels, s16, 320 kb/s
02. The Escape_sample.mp3
Audio file info Duration: 00:04:08.94, start: 0.000000, bitrate: 320 kb/s
Stream #0.0: Audio: mp3, 44100 Hz, 2 channels, s16, 320 kb/s
01. You're Coming with Me_sample.mp3
Audio file info Duration: 00:05:35.80, start: 0.000000, bitrate: 320 kb/s
Stream #0.0: Audio: mp3, 44100 Hz, 2 channels, s16, 320 kb/s
09. The Mass Of The Earth_sample.mp3
Audio file info Duration: 00:04:40.03, start: 0.000000, bitrate: 320 kb/s
Stream #0.0: Audio: mp3, 44100 Hz, 2 channels, s16, 320 kb/s

Contents of download:

134 megabyte in 11 files
The Agonist - Prisoners (2012)
  • The Agonist - Prisoners (2012) HQ/06. Ideomotor.mp3 (19 MB)
  • The Agonist - Prisoners (2012) HQ/11. Revenge Of The Dadaists.mp3 (15 MB)
  • The Agonist - Prisoners (2012) HQ/08. Dead Ocean.mp3 (14 MB)
  • The Agonist - Prisoners (2012) HQ/01. You're Coming with Me.mp3 (13 MB)
  • The Agonist - Prisoners (2012) HQ/04. Anxious Darwinians.mp3 (12 MB)
  • The Agonist - Prisoners (2012) HQ/03. Predator And Prayer.mp3 (12 MB)
  • The Agonist - Prisoners (2012) HQ/10. Everybody Wants You (Dead)..mp3 (11 MB)
  • The Agonist - Prisoners (2012) HQ/09. The Mass Of The Earth.mp3 (11 MB)
  • The Agonist - Prisoners (2012) HQ/02. The Escape.mp3 (9.5 MB)
  • The Agonist - Prisoners (2012) HQ/05. Panophobia.mp3 (8.9 MB)
  • The Agonist - Prisoners (2012) HQ/07. Lonely Solipsist.mp3 (8.6 MB)

Comments:


Add report or comment (250 words maximum)

I'd like:  
Type text from captcha: