Our friends

Jessie Baylin Little Spark(2012)[FLAC] torrent

Torrent info

Date 2012-06-04 18:46:30
Category Music
Hash 20e4a9810e1fb97c0f68113592a9c584162af438
Seeds / Leechs -1 / -1 refresh
Full size 244 MB
Tracker http://tracker.thepiratebay.org/announce
Tags jessie baylin little spark 2012 flac
Download – Jessie Baylin Little Spark(2012)[FLAC] Download direct – no client needed

Related torrents

Alanis Morissette - Jagged Little Pill 1995 [FLAC] - Kitlope
Amy Rigby Little Fugitive(2005)[FLAC]
Jeff Lynne & Friends - Every Little Thing (2010) [FLAC]
Chris Knight - Little Victories [2012] [FLAC]

Torrent's content info

20 seconds audio samples

10 Joy is Suspicious.flac_sample.mp3
Audio file info Duration: 00:04:08.24, bitrate: 849 kb/s
Stream #0.0: Audio: flac, 44100 Hz, 2 channels, s16
05 Star Cannon.flac_sample.mp3
Audio file info Duration: 00:03:31.54, bitrate: 861 kb/s
Stream #0.0: Audio: flac, 44100 Hz, 2 channels, s16
03 The Greatest Thing That Never Happened.flac_sample.mp3
Audio file info Duration: 00:03:17.73, bitrate: 863 kb/s
Stream #0.0: Audio: flac, 44100 Hz, 2 channels, s16
07 Holiday.flac_sample.mp3
Audio file info Duration: 00:03:02.81, bitrate: 908 kb/s
Stream #0.0: Audio: flac, 44100 Hz, 2 channels, s16

Text sample Text sample from Torrent downloaded from Demonoid.me.txt

Torrent downloaded from http://www.Demonoid.me




Contents of download:

244 megabyte in 14 files
Jessie Baylin Little Spark(2012)[FLAC]
  • Jessie Baylin...Little Spark(2012)[FLAC]/09 The Winds.flac (26 MB)
  • Jessie Baylin...Little Spark(2012)[FLAC]/10 Joy is Suspicious.flac (25 MB)
  • Jessie Baylin...Little Spark(2012)[FLAC]/06 Yuma.flac (24 MB)
  • Jessie Baylin...Little Spark(2012)[FLAC]/04 I Feel That Too.flac (23 MB)
  • Jessie Baylin...Little Spark(2012)[FLAC]/02 Love is Wasted on Lovers.flac (22 MB)
  • Jessie Baylin...Little Spark(2012)[FLAC]/01 Hurry Hurry.flac (22 MB)
  • Jessie Baylin...Little Spark(2012)[FLAC]/08 Dancer.flac (22 MB)
  • Jessie Baylin...Little Spark(2012)[FLAC]/05 Star Cannon.flac (22 MB)
  • Jessie Baylin...Little Spark(2012)[FLAC]/03 The Greatest Thing That Never Happened.flac (20 MB)
  • Jessie Baylin...Little Spark(2012)[FLAC]/07 Holiday.flac (20 MB)
  • Jessie Baylin...Little Spark(2012)[FLAC]/11 Little Spark.flac (19 MB)
  • Jessie Baylin...Little Spark(2012)[FLAC]/Little Spark.log (8.6 KB)
  • Jessie Baylin...Little Spark(2012)[FLAC]/Little Spark.cue (2.5 KB)
  • Jessie Baylin...Little Spark(2012)[FLAC]/Torrent downloaded from Demonoid.me.txt (0 KB)

Comments:


Add report or comment (250 words maximum)

I'd like:  
Type text from captcha: