Our friends

Amiga 500 musik torrent

Torrent info

Date 2012-07-15 00:45:27
Category Music
Hash 2158c755c1ea4c13e3730ef7e888bc49a3080396
Seeds / Leechs -1 / -1 refresh
Full size 172 MB
Tracker http://tracker.openbittorrent.com/scrape
Tags amiga musik
Download – Amiga 500 musik Download direct – no client needed

Related torrents

Amiga Emulator + 237 classic Amiga games + Install guide
Arvika Gammeldans Orkester - AGO - Musik Från Helvete (1980)
Lillasyster-Hjarndod_Musik_For_En_Hjarndod_Generation-SE-2007-Lz
Dator.Parallellt.Video.Workbench.2.0.Amiga.VHSRiP.XViD-CCC.avi

Torrent's content info

20 seconds audio samples

Amiga Forever - Vol 1 - 10 - Space Crusade Title_sample.mp3
Audio file info Duration: 00:03:19.70, start: 0.000000, bitrate: 192 kb/s
Stream #0.0: Audio: mp3, 44100 Hz, 2 channels, s16, 192 kb/s
Amiga Forever - Vol 2 - 02 - Last Ninja 2 Ingame #3_sample.mp3
Audio file info Duration: 00:03:55.54, start: 0.000000, bitrate: 192 kb/s
Stream #0.0: Audio: mp3, 44100 Hz, 2 channels, s16, 192 kb/s
Amiga Forever - Vol 1 - 12 - Cannon Fodder Intro_sample.mp3
Audio file info Duration: 00:02:33.62, start: 0.000000, bitrate: 192 kb/s
Stream #0.0: Audio: mp3, 44100 Hz, 2 channels, s16, 192 kb/s
Amiga Forever - Vol 2 - 07 - Final Fight Ingame_sample.mp3
Audio file info Duration: 00:07:15.22, start: 0.000000, bitrate: 192 kb/s
Stream #0.0: Audio: mp3, 44100 Hz, 2 channels, s16, 192 kb/s

Contents of download:

172 megabyte in 36 files
Amiga 500 musik
  • Amiga musik/Amiga Forever - Vol 1 - 01 - Last Ninja 2 Intro.mp3 (2.6 MB)
  • Amiga musik/Amiga Forever - Vol 1 - 02 - Lost Patrol Ingame.mp3 (4.1 MB)
  • Amiga musik/Amiga Forever - Vol 1 - 03 - Premier Manager 2 Intro.mp3 (2.7 MB)
  • Amiga musik/Amiga Forever - Vol 1 - 04 - Last Ninja 2 Ingame #1.mp3 (5.7 MB)
  • Amiga musik/Amiga Forever - Vol 1 - 05 - Great Courts 2 - Intro.mp3 (1.3 MB)
  • Amiga musik/Amiga Forever - Vol 1 - 06 - Agony Intro.mp3 (6 MB)
  • Amiga musik/Amiga Forever - Vol 1 - 07 - Blood Money Ingame.mp3 (6 MB)
  • Amiga musik/Amiga Forever - Vol 1 - 08 - Heimdall Title.mp3 (1.6 MB)
  • Amiga musik/Amiga Forever - Vol 1 - 09 - Lotus 2 Intro.mp3 (3.9 MB)
  • Amiga musik/Amiga Forever - Vol 1 - 10 - Space Crusade Title.mp3 (4.6 MB)
  • Amiga musik/Amiga Forever - Vol 1 - 11 - Last Ninja 2 Ingame #2.mp3 (7.4 MB)
  • Amiga musik/Amiga Forever - Vol 1 - 12 - Cannon Fodder Intro.mp3 (3.5 MB)
  • Amiga musik/Amiga Forever - Vol 1 - 13 - Double Dragon 2 Title.mp3 (6.2 MB)
  • Amiga musik/Amiga Forever - Vol 1 - 14 - Golden Axe Ingame.mp3 (14 MB)
  • Amiga musik/Amiga Forever - Vol 1 - 15 - Lotus 3 Ingame #1.mp3 (3.5 MB)
  • Amiga musik/Amiga Forever - Vol 1 - 16 - Pinball Dreams Title.mp3 (7.4 MB)
  • Amiga musik/Amiga Forever - Vol 1 - 17 - Supercars 2 Title.mp3 (5.5 MB)
  • Amiga musik/Amiga Forever - Vol 1 - 18 - Bonanza Brothers Ingame.mp3 (1.4 MB)
  • Amiga musik/Amiga Forever - Vol 2 - 01 - Jaguar XJ220 Title.mp3 (4 MB)
  • Amiga musik/Amiga Forever - Vol 2 - 02 - Last Ninja 2 Ingame #3.mp3 (5.4 MB)
  • Amiga musik/Amiga Forever - Vol 2 - 03 - Pinball Fantasies Title.mp3 (6.7 MB)
  • Amiga musik/Amiga Forever - Vol 2 - 04 - Space Crusade Ingame #1.mp3 (1.1 MB)
  • Amiga musik/Amiga Forever - Vol 2 - 05 - Dogs Of War Title.mp3 (14 MB)
  • Amiga musik/Amiga Forever - Vol 2 - 06 - Blood Money Title.mp3 (3.7 MB)
  • Amiga musik/Amiga Forever - Vol 2 - 07 - Final Fight Ingame.mp3 (10 MB)
  • Amiga musik/Amiga Forever - Vol 2 - 08 - Great Courts 2 - Title.mp3 (2.5 MB)
  • Amiga musik/Amiga Forever - Vol 2 - 09 - Lotus Ingame #1.mp3 (2.5 MB)
  • Amiga musik/Amiga Forever - Vol 2 - 10 - Monkey Island.mp3 (5.4 MB)
  • Amiga musik/Amiga Forever - Vol 2 - 11 - Project X Title.mp3 (6.3 MB)
  • Amiga musik/Amiga Forever - Vol 2 - 12 - Syndicate Intro.mp3 (1.6 MB)
  • Amiga musik/Amiga Forever - Vol 2 - 13 - Lotus Ingame #2.mp3 (1.9 MB)
  • Amiga musik/Amiga Forever - Vol 2 - 14 - Alien Breed 2 Title.mp3 (5.3 MB)
  • Amiga musik/Amiga Forever - Vol 2 - 15 - Last Ninja 2 Ingame #4.mp3 (5.5 MB)
  • Amiga musik/Amiga Forever - Vol 2 - 16 - Premier Manager 3 Ingame.mp3 (1.4 MB)
  • Amiga musik/Amiga Forever - Vol 2 - 17 - Flashback Intro.mp3 (6.6 MB)
  • Amiga musik/Amiga Forever - Vol 3 - 01 - Speedball 2 Title.mp3 (1.3 MB)

Comments:


Add report or comment (250 words maximum)

I'd like:  
Type text from captcha: