Our friends

The Avengers (2012) DvDRip Avi 5 1 by EE Rel NL torrent

Torrent info

Date 2012-08-22 04:45:14
Category Movies
Hash c9bfaaf83b87ee4ab469313c2bf00c6ab5597c3e
Seeds / Leechs 30 / 6 refresh
Full size 2756 MB
Tracker http://tracker.thepiratebay.org/announce
Tags avengers 2012 dvdrip

Related torrents

The.Avengers.2012.DVDRip.XviD.Ac3 {1337x}-Blackjesus
The Avengers 2012 DVDRip XviD AC3-playXD
The Avengers (2012) DvDRip Avi 5 1 by EE Rel NL
The Avengers (2012)-DVDRIp Xvid-THC

The Avengers overview

Description

Torrent's content info

The Avengers (2012) DvDRip Avi 5.1 by EE.Rel.NL.avi

The Avengers (2012) DvDRip Avi 5 1 by EE Rel NL screenshot
  • Screenshot 1
  • Screenshot 2
  • Screenshot 3
  • Screenshot 4
  • Screenshot 5
  • Screenshot 6
  • Screenshot 7
  • Screenshot 8
  • Screenshot 9

Duration: 02:22:54.84, start: 0.000000, bitrate: 2696 kb/s
Stream #0.0: Video: mpeg4, yuv420p, 720x416 [PAR 1:1 DAR 45:26], 25 tbr, 25 tbn, 25 tbc
Stream #0.1: Audio: ac3, 48000 Hz, 5.1, s16, 448 kb/s

Check the movie's sound/language:

Text sample Text sample from Torrent downloaded from AhaShare.com.txt

Share the fun!!!
Torrent downloaded from AhaShare.com.txt




Text sample Text sample from Torrent downloaded from Demonoid.me.txt

Torrent downloaded from http://www.Demonoid.me




Text sample Text sample from tracked_by_h33t_com.txt

tracked by www.h33t.com




Text sample Text sample from Torrent downloaded from silvertorrent.org.txt

Torrent downloaded from http://www.silvertorrent.org




Text sample Text sample from Torrent Downloaded from limetorrent.txt

Torrent Downloaded from:

www.Limetorrents.com




Text sample Text sample from Torrent downloaded from KAT.ph.txt

Torrent downloaded from http://www.kat.ph




Text sample Text sample from Torrent downloaded from thepiratebay.se.txt

Torrent downloaded from http://www.thepiratebay.se




Text sample Text sample from Torrent downloaded from AanMeHoelaJa Torrents on BTScene.eu.txt

Visit AanMeHoelaJa torrents: http://www.btscene.eu/user/13058/torrents/




Text sample Text sample from Torrent Downloaded From BTScene.eu.txt

Torrent downloaded from http://www.btscene.eu




Text sample Text sample from Torrent downloaded from Rarbg.com.txt

Torrent downloaded from Rarbg.com




Contents of download:

2756 megabyte in 12 files
The Avengers (2012) DvDRip Avi 5 1 by EE Rel NL
  • The Avengers (2012) DvDRip Avi 5.1 by EE.Rel.NL/The Avengers (2012) DvDRip Avi 5.1 by EE.Rel.NL.avi (2756 MB)
  • The Avengers (2012) DvDRip Avi 5.1 by EE.Rel.NL/Torrent Downloaded From BTScene.eu.txt (0 KB)
  • The Avengers (2012) DvDRip Avi 5.1 by EE.Rel.NL/Torrent Downloaded From ExtraTorrent.com.txt (0.3 KB)
  • The Avengers (2012) DvDRip Avi 5.1 by EE.Rel.NL/Torrent Downloaded from limetorrent.txt (0 KB)
  • The Avengers (2012) DvDRip Avi 5.1 by EE.Rel.NL/Torrent downloaded from AanMeHoelaJa Torrents on BTScene.eu.txt (0.1 KB)
  • The Avengers (2012) DvDRip Avi 5.1 by EE.Rel.NL/Torrent downloaded from AhaShare.com.txt (0.1 KB)
  • The Avengers (2012) DvDRip Avi 5.1 by EE.Rel.NL/Torrent downloaded from Demonoid.me.txt (0 KB)
  • The Avengers (2012) DvDRip Avi 5.1 by EE.Rel.NL/Torrent downloaded from KAT.ph.txt (0 KB)
  • The Avengers (2012) DvDRip Avi 5.1 by EE.Rel.NL/Torrent downloaded from Rarbg.com.txt (0 KB)
  • The Avengers (2012) DvDRip Avi 5.1 by EE.Rel.NL/Torrent downloaded from silvertorrent.org.txt (0.1 KB)
  • The Avengers (2012) DvDRip Avi 5.1 by EE.Rel.NL/Torrent downloaded from thepiratebay.se.txt (0 KB)
  • The Avengers (2012) DvDRip Avi 5.1 by EE.Rel.NL/tracked_by_h33t_com.txt (0 KB)

Comments:


Add report or comment (250 words maximum)

I'd like:  
Type text from captcha: