Our friends

Kiss - Destroyer - Resurrected (Mp3) 2012. butchT torrent

Torrent info

Date 2012-08-22 12:49:53
Category Music
Hash 9082a5a86e8325e687dbfcf3a4d04d07dc295431
Seeds / Leechs 4 / 0 refresh
Full size 102 MB
Tracker http://fr33domtracker.h33t.com:3310/scrape
Tags kiss destroyer resurrected 2012 butcht

Related torrents

Kiss - Destroyer {Original master} (1976) [VBR HQ mp3s]
KISS - Destroyer (Remaster) (1976)
Kiss - Destroyer - Resurrected (Mp3) 2012. butchT
Kiss-2012.Destroyer.Resurrected.FLAC

Torrent's content info

20 seconds audio samples

11. Sweet Pain (Original Guitar Solo)_sample.mp3
Audio file info Duration: 00:03:18.89, start: 0.000000, bitrate: 458 kb/s
Stream #0.0: Audio: mp3, 44100 Hz, 2 channels, s16, 320 kb/s
01. Detroit Rock City (2012 Remix)_sample.mp3
Audio file info Duration: 00:05:15.76, start: 0.000000, bitrate: 327 kb/s
Stream #0.0: Audio: mp3, 44100 Hz, 2 channels, s16, 320 kb/s
06. Sweet Pain (2012 Remix)_sample.mp3
Audio file info Duration: 00:03:21.56, start: 0.000000, bitrate: 330 kb/s
Stream #0.0: Audio: mp3, 44100 Hz, 2 channels, s16, 320 kb/s
07. Shout It Out Loud (2012 Remix)_sample.mp3
Audio file info Duration: 00:02:51.18, start: 0.000000, bitrate: 332 kb/s
Stream #0.0: Audio: mp3, 44100 Hz, 2 channels, s16, 320 kb/s

Text sample Text sample from Torrent downloaded from butchT torrents on BTScene.eu.txt

Visit butchT torrents: http://www.btscene.eu/user/51379/torrents/




Text sample Text sample from Torrent Downloaded From ExtraTorrent.com.txt

Torrent Downloaded From ExtraTorrent.com





- The biggest torrent community



- No fake torrents, All torrents checked by our Moderators



- The latest torrent releases



- The most helpful members and site admins



- Be updated with the latest news in the p2p world with ExtraTorrent



- The best forum community in the p2p world




Contents of download:

102 megabyte in 15 files
Kiss - Destroyer - Resurrected (Mp3) 2012. butchT
  • Kiss - Destroyer - Resurrected (2012). butchT Latest Albums/01. Detroit Rock City (2012 Remix).mp3 (12 MB)
  • Kiss - Destroyer - Resurrected (2012). butchT Latest Albums/02. King of the Night Time World (2012 Remix).mp3 (8 MB)
  • Kiss - Destroyer - Resurrected (2012). butchT Latest Albums/03. God of Thunder (2012 Remix).mp3 (10 MB)
  • Kiss - Destroyer - Resurrected (2012). butchT Latest Albums/04. Great Expectations (2012 Remix).mp3 (10 MB)
  • Kiss - Destroyer - Resurrected (2012). butchT Latest Albums/05. Flaming Youth (2012 Remix).mp3 (7.1 MB)
  • Kiss - Destroyer - Resurrected (2012). butchT Latest Albums/06. Sweet Pain (2012 Remix).mp3 (8 MB)
  • Kiss - Destroyer - Resurrected (2012). butchT Latest Albums/07. Shout It Out Loud (2012 Remix).mp3 (6.8 MB)
  • Kiss - Destroyer - Resurrected (2012). butchT Latest Albums/08. Beth (2012 Remix).mp3 (10 MB)
  • Kiss - Destroyer - Resurrected (2012). butchT Latest Albums/09. Do You Love Me (2012 Remix).mp3 (12 MB)
  • Kiss - Destroyer - Resurrected (2012). butchT Latest Albums/10. Rock and Roll Party (2012 Remix).mp3 (6.6 MB)
  • Kiss - Destroyer - Resurrected (2012). butchT Latest Albums/11. Sweet Pain (Original Guitar Solo).mp3 (11 MB)
  • Kiss - Destroyer - Resurrected (2012). butchT Latest Albums/butchT.jpg (77.8 KB)
  • Kiss - Destroyer - Resurrected (2012). butchT Latest Albums/Kiss - Destroyer - Resurrected.jpg (45.3 KB)
  • Kiss - Destroyer - Resurrected (2012). butchT Latest Albums/Torrent downloaded from butchT torrents on BTScene.eu.txt (0.1 KB)
  • Kiss - Destroyer - Resurrected (2012). butchT Latest Albums/Torrent Downloaded From ExtraTorrent.com.txt (0.3 KB)

Comments:


Add report or comment (250 words maximum)

I'd like:  
Type text from captcha: