Our friends

Biwi No.1 (1999).DVDRip.XviD.AC3.Subs.[DDR] torrent

Torrent info

Date 2012-10-06 00:46:15
Category Movies
Hash ae75af5982158f99b121aeddbb87bc13b58ca827
Seeds / Leechs 0 / 8 refresh
Full size 1506 MB
Tracker http://www.genesis-sp.org:2710/scrape
Tags biwi 1999 dvdrip xvid subs
Download – Biwi No.1 (1999).DVDRip.XviD.AC3.Subs.[DDR] Download direct – no client needed

Related torrents

Message in a Bottle[1999] Dvdrip Xvid AC3[5 1]-RoCK&BlueLadyRG
Noll.Tolerans.1999.DVDRip.Xvid.swedish-bexie[Tanka Fett.com]
Sweet and Lowdown (Woody Allen 1999) DVDRip XviD Avi
Grass.Documentario.Proibicao.Maconha.EUA.1999.DVDRip.XviD-RCJ

Torrent's content info

Biwi No.1 (1999).DVDRip.XviD.AC3.Subs.[DDR].avi

Biwi No.1 (1999).DVDRip.XviD.AC3.Subs.[DDR] screenshot
  • Screenshot 1
  • Screenshot 2
  • Screenshot 3
  • Screenshot 4
  • Screenshot 5
  • Screenshot 6
  • Screenshot 7
  • Screenshot 8
  • Screenshot 9

Duration: 02:27:13.31, start: 0.000000, bitrate: 1412 kb/s
Stream #0.0: Video: mpeg4, yuv420p, 688x304 [PAR 1:1 DAR 43:19], 23.98 tbr, 23.98 tbn, 23.98 tbc
Stream #0.1: Audio: ac3, 48000 Hz, 5.1, s16, 320 kb/s

Check the movie's sound/language:

Contents of download:

1506 megabyte in 15 files
Biwi No.1 (1999).DVDRip.XviD.AC3.Subs.[DDR]
  • Biwi No.1 (1999).DVDRip.XviD.AC3.Subs.[DDR]/Biwi No.1 (1999)(Screenshots).DVDRip.XviD.AC3.Subs.[DDR]/1.png (0.3 MB)
  • Biwi No.1 (1999).DVDRip.XviD.AC3.Subs.[DDR]/Biwi No.1 (1999)(Screenshots).DVDRip.XviD.AC3.Subs.[DDR]/8.png (0.2 MB)
  • Biwi No.1 (1999).DVDRip.XviD.AC3.Subs.[DDR]/Biwi No.1 (1999)(Screenshots).DVDRip.XviD.AC3.Subs.[DDR]/2.png (0.2 MB)
  • Biwi No.1 (1999).DVDRip.XviD.AC3.Subs.[DDR]/Biwi No.1 (1999)(Screenshots).DVDRip.XviD.AC3.Subs.[DDR]/3.png (0.2 MB)
  • Biwi No.1 (1999).DVDRip.XviD.AC3.Subs.[DDR]/Biwi No.1 (1999)(Screenshots).DVDRip.XviD.AC3.Subs.[DDR]/6.png (0.2 MB)
  • Biwi No.1 (1999).DVDRip.XviD.AC3.Subs.[DDR]/Biwi No.1 (1999)(Screenshots).DVDRip.XviD.AC3.Subs.[DDR]/4.png (0.2 MB)
  • Biwi No.1 (1999).DVDRip.XviD.AC3.Subs.[DDR]/Biwi No.1 (1999)(Screenshots).DVDRip.XviD.AC3.Subs.[DDR]/9.png (0.2 MB)
  • Biwi No.1 (1999).DVDRip.XviD.AC3.Subs.[DDR]/Biwi No.1 (1999)(Screenshots).DVDRip.XviD.AC3.Subs.[DDR]/7.png (0.2 MB)
  • Biwi No.1 (1999).DVDRip.XviD.AC3.Subs.[DDR]/Biwi No.1 (1999)(Screenshots).DVDRip.XviD.AC3.Subs.[DDR]/5.png (0.1 MB)
  • Biwi No.1 (1999).DVDRip.XviD.AC3.Subs.[DDR]/Biwi No.1 (1999).DVDRip.XviD.AC3.Subs.[DDR].avi (1487 MB)
  • Biwi No.1 (1999).DVDRip.XviD.AC3.Subs.[DDR]/Biwi No.1 (1999)(Sample).DVDRip.XviD.AC3.Subs.[DDR].avi (11 MB)
  • Biwi No.1 (1999).DVDRip.XviD.AC3.Subs.[DDR]/Biwi No.1 (1999).DVDRip.XviD.AC3.Subs.[DDR].sub (6 MB)
  • Biwi No.1 (1999).DVDRip.XviD.AC3.Subs.[DDR]/Biwi No.1 (1999).DVDRip.XviD.AC3.Subs.[DDR].idx (88.7 KB)
  • Biwi No.1 (1999).DVDRip.XviD.AC3.Subs.[DDR]/Biwi No.1 (1999).DVDRip.XviD.AC3.Subs.[DDR].gif (38.1 KB)
  • Biwi No.1 (1999).DVDRip.XviD.AC3.Subs.[DDR]/Biwi No.1 (1999).DVDRip.XviD.AC3.Subs.[DDR].nfo (10.5 KB)

Comments:


Add report or comment (250 words maximum)

I'd like:  
Type text from captcha: