Our friends

Mulan II / Mulan 2 [dublat romana] torrent

Torrent info

Date 2012-11-14 01:09:10
Category Movies
Hash 1abdb65c9d687b0cba2aaf18df959146a8cfa3e1
Seeds / Leechs -1 / -1 refresh
Full size 699 MB
Tracker http://tracker.thepiratebay.org/scrape
Tags mulan mulan dublat romana
Download – Mulan II / Mulan 2 [dublat romana] Download direct – no client needed

Related torrents

Mulan.1998.DVDRip-Morsan(Swe-Tal)
Mulan[DVDRip][1998] [338/448]
mulan 2
Walt Disney -Mulan -Divxfr - Dvd -Rip Par Diabolo teste www divxovore com avi

Mulan (1998) overview

Genre: adventure, drama, family, musical, animation Director: Bancroft, Tony

Description

For the great people have fallen hard times: the country was attacked by warlike tribe of the Huns. Dressed in men's clothing, Mulan joins the other soldiers and sent on a dangerous trek to the foot of the snow-capped mountains. She is accompanied by a funny dragon Mushu, who looks more like a small dog than a mythical monster. Trying to hide the secret, they find themselves in funny situations, and do not realize that their secret will be revealed! Mulan - proof that a woman is not necessarily a weak and defenseless nature. She has the desire to prove to herself and others that she is strong, and Mulan forced to look death in the face, not hiding her eyes. Yet it would be desirable to note the terrible subject of war, which from an ordinary young and beautiful Mulan made a brave and courageous warrior. In the poem the heroine is called simply "Mulan." "Mulan" means "Magnolia." ("Moo" means a tree, and "Lan" means "orchid."). The name of Mushu translates as miracle, magic.

Torrent's content info

[ro]Mulan2.h264.avi

Mulan II / Mulan 2 [dublat romana] screenshot
  • Screenshot 1
  • Screenshot 2
  • Screenshot 3
  • Screenshot 4
  • Screenshot 5
  • Screenshot 6
  • Screenshot 7
  • Screenshot 8
  • Screenshot 9

Duration: 01:15:31.68, start: 0.000000, bitrate: 1294 kb/s
Stream #0.0: Video: h264, yuv420p, 608x336 [PAR 1:1 DAR 38:21], 25 fps, 25 tbr, 25 tbn, 50 tbc
Stream #0.1: Audio: mp3, 48000 Hz, 2 channels, s16, 128 kb/s

Check the movie's sound/language:

Contents of download:

699 megabyte in 1 files
Mulan II / Mulan 2 [dublat romana]
  • [ro]Mulan2.h264.avi (699 MB)

Comments:


Add report or comment (250 words maximum)

I'd like:  
Type text from captcha: