Our friends

Columna torrent

Torrent info

Date 2012-11-28 01:20:28
Category Movies
Hash b87bcff2357f4487274ebab6601d85b8e36c6fda
Seeds / Leechs -1 / -1 refresh
Full size 4261 MB
Tracker http://tracker.publicbt.com/scrape
Tags columna
Download – Columna Download direct – no client needed

Torrent's content info

VTS_01_4.VOB

Columna screenshot
  • Screenshot 1
  • Screenshot 2
  • Screenshot 3
  • Screenshot 4
  • Screenshot 5
  • Screenshot 6
  • Screenshot 7
  • Screenshot 8
  • Screenshot 9

Duration: 00:32:08.52, start: 5785.692000, bitrate: 4454 kb/s
Stream #0.0[0x1e0]: Video: mpeg2video, yuv420p, 720x576 [PAR 16:15 DAR 4:3], 4106 kb/s, 25.81 fps, 25 tbr, 90k tbn, 50 tbc
Stream #0.1[0x80]: Audio: ac3, 48000 Hz, stereo, s16, 256 kb/s

Check the movie's sound/language:

Contents of download:

4261 megabyte in 11 files
Columna
  • ColumnaDVD/VIDEO_TS/VTS_01_2.VOB (1024 MB)
  • ColumnaDVD/VIDEO_TS/VTS_01_4.VOB (1024 MB)
  • ColumnaDVD/VIDEO_TS/VTS_01_3.VOB (1024 MB)
  • ColumnaDVD/VIDEO_TS/VTS_01_1.VOB (1024 MB)
  • ColumnaDVD/VIDEO_TS/VTS_01_5.VOB (139 MB)
  • ColumnaDVD/VIDEO_TS/VTS_01_0.VOB (26 MB)
  • ColumnaDVD/VIDEO_TS/VTS_01_0.IFO (74 KB)
  • ColumnaDVD/VIDEO_TS/VTS_01_0.BUP (74 KB)
  • ColumnaDVD/VIDEO_TS/VIDEO_TS.IFO (14 KB)
  • ColumnaDVD/VIDEO_TS/VIDEO_TS.BUP (14 KB)
  • ColumnaDVD/VIDEO_TS/VIDEO_TS.VOB (10 KB)

Comments:


Add report or comment (250 words maximum)

I'd like:  
Type text from captcha: