Our friends

VA - Hoy No Me Puedo Levantar (2005) - Musical azos.com.rar torrent

Torrent info

Date 2012-12-04 00:46:49
Category Music
Hash d3d890a6f21c9ab63beb74dd577313350caf2641
Seeds / Leechs -1 / -1 refresh
Full size 142 MB
Tracker http://tracker.publicbt.com/scrape
Tags puedo levantar 2005 musical azos

Related torrents

Flanger-Spirituals(2005)
Tesla - Live at the Filmore San Francisco May 18th 2005 All a 3373539 TPB
Black Label Society - Mafia(2005) [Metal](www pctrecords com)
De kleine Zeemeermin, de musical (2005) DVDR(xvid) NL Gespr DMT

Torrent's content info

VA - Hoy No Me Puedo Levantar (2005) - Musical [www.torrentazos.com].rar

  • VA - Hoy No Me Puedo Levantar (2005) - Musical [www.torrentazos.com]/CD2/207-a._martos-el_7_de_septiembre_-_www.torrentazos.com.mp3 (5.5 MB)
  • VA - Hoy No Me Puedo Levantar (2005) - Musical [www.torrentazos.com]/CD2/213-m._fernandez-la_fuerza_del_destino_-_www.torrentazos.com.mp3 (8.8 MB)
  • VA - Hoy No Me Puedo Levantar (2005) - Musical [www.torrentazos.com]/CD2/206-j._navares-el_uno_el_dos_el_tres_-_www.torrentazos.com.mp3 (1.4 MB)
  • VA - Hoy No Me Puedo Levantar (2005) - Musical [www.torrentazos.com]/CD2/204-c._benito-cruz_de_navajas_-_www.torrentazos.com.mp3 (3.6 MB)
  • VA - Hoy No Me Puedo Levantar (2005) - Musical [www.torrentazos.com]/CD2/203-j._godino-perdido_en_mi_habitacion_-_www.torrentazos.com.mp3 (3.9 MB)
  • VA - Hoy No Me Puedo Levantar (2005) - Musical [www.torrentazos.com]/CD2/214-m._fernandez-vivimos_siempre_juntos_-_www.torrentazos.com.mp3 (7.5 MB)
  • VA - Hoy No Me Puedo Levantar (2005) - Musical [www.torrentazos.com]/CD2/212-j._godino-no_es_serio_este_cementerio_-_www.torrentazos.com.mp3 (7.5 MB)
  • VA - Hoy No Me Puedo Levantar (2005) - Musical [www.torrentazos.com]/CD2/215-toda_la_compañia-medley_2_-_www.torrentazos.com.mp3 (6.5 MB)
  • VA - Hoy No Me Puedo Levantar (2005) - Musical [www.torrentazos.com]/CD2/202-m._fernandez-aire_-_www.torrentazos.com.mp3 (6.7 MB)
  • VA - Hoy No Me Puedo Levantar (2005) - Musical [www.torrentazos.com]/CD2/201-l._bordanea-eugenio_salvador_dali-laika_-_www.torrentazos.com.mp3 (6.1 MB)
  • VA - Hoy No Me Puedo Levantar (2005) - Musical [www.torrentazos.com]/CD2/208-i._cuesta-hijo_de_la_luna_-_www.torrentazos.com.mp3 (3.5 MB)
  • VA - Hoy No Me Puedo Levantar (2005) - Musical [www.torrentazos.com]/CD2/205-m._fernandez_j._godino-barco_de_venus_-_www.torrentazos.com.mp3 (5.4 MB)
  • VA - Hoy No Me Puedo Levantar (2005) - Musical [www.torrentazos.com]/CD2/211-m._fernandez-me_cuesta_tanto_olvidarte_-_www.torrentazos.com.mp3 (6 MB)
  • VA - Hoy No Me Puedo Levantar (2005) - Musical [www.torrentazos.com]/CD2/209-toda_la_compañia-un_año_mas_-_www.torrentazos.com.mp3 (7.2 MB)
  • VA - Hoy No Me Puedo Levantar (2005) - Musical [www.torrentazos.com]/CD2/210-c._regino-el_fallo_positivo_-_www.torrentazos.com.mp3 (4.1 MB)
  • VA - Hoy No Me Puedo Levantar (2005) - Musical [www.torrentazos.com]/va-hoy_no_me_puedo_levantar-2005-(covers)_-_www.torrentazos.com.jpg (2 MB)
  • VA - Hoy No Me Puedo Levantar (2005) - Musical [www.torrentazos.com]/CD1/102-m._fernandez-quiero_vivir_en_la_ciudad_-_www.torrentazos.com.mp3 (2.5 MB)
  • VA - Hoy No Me Puedo Levantar (2005) - Musical [www.torrentazos.com]/CD1/111-a._martos_y_l._bordanes-me_cole_en_una_fiesta_-_www.torrentazos.com.mp3 (4.4 MB)
  • VA - Hoy No Me Puedo Levantar (2005) - Musical [www.torrentazos.com]/CD1/104-toda_la_compañia-maquillaje_-_www.torrentazos.com.mp3 (4.6 MB)
  • VA - Hoy No Me Puedo Levantar (2005) - Musical [www.torrentazos.com]/CD1/110-s._gravalos-lia_-_www.torrentazos.com.mp3 (4.4 MB)
  • VA - Hoy No Me Puedo Levantar (2005) - Musical [www.torrentazos.com]/CD1/113-m._fernandez-medley_1_-_www.torrentazos.com.mp3 (9.4 MB)
  • VA - Hoy No Me Puedo Levantar (2005) - Musical [www.torrentazos.com]/CD1/106-n._vergara_j._godino_j._navares-hawaii_-_bombay_-_www.torrentazos.com.mp3 (3.4 MB)
  • VA - Hoy No Me Puedo Levantar (2005) - Musical [www.torrentazos.com]/CD1/108-j._navares-una_rosa_es_una_rosa_-_www.torrentazos.com.mp3 (5 MB)
  • VA - Hoy No Me Puedo Levantar (2005) - Musical [www.torrentazos.com]/CD1/112-a._padilla_e._morlans_m._fernandez_j._godino-no_controles_(concurso)_-_www.torrentazos.com.mp3 (2.5 MB)
  • VA - Hoy No Me Puedo Levantar (2005) - Musical [www.torrentazos.com]/CD1/105-m._fernandez_y_i._costa-por_la_cara_-_www.torrentazos.com.mp3 (2.9 MB)
  • VA - Hoy No Me Puedo Levantar (2005) - Musical [www.torrentazos.com]/CD1/103-d._paris-no_hay_marcha_en_nueva_york_-_www.torrentazos.com.mp3 (2.9 MB)
  • VA - Hoy No Me Puedo Levantar (2005) - Musical [www.torrentazos.com]/CD1/109-i._cuesta-mujer_contra_mujer_-_www.torrentazos.com.mp3 (4.1 MB)
  • VA - Hoy No Me Puedo Levantar (2005) - Musical [www.torrentazos.com]/CD1/107-j._godino-quedate_en_madrid_-_www.torrentazos.com.mp3 (3.7 MB)
  • VA - Hoy No Me Puedo Levantar (2005) - Musical [www.torrentazos.com]/CD1/101-j._godino-hoy_no_me_puedo_levantar_-_www.torrentazos.com.mp3 (6.6 MB)
  • VA - Hoy No Me Puedo Levantar (2005) - Musical [www.torrentazos.com]/www.torrentazos.com - The best web of music torrents!.url (0.1 KB)

20 seconds audio samples

206-j._navares-el_uno_el_dos_el_tres_-_www.torrentazos.com_sample.mp3
Audio file info Duration: 00:01:29.72, start: 0.000000, bitrate: 127 kb/s
Stream #0.0: Audio: mp3, 44100 Hz, 2 channels, s16, 128 kb/s
204-c._benito-cruz_de_navajas_-_www.torrentazos.com_sample.mp3
Audio file info Duration: 00:03:53.56, start: 0.000000, bitrate: 127 kb/s
Stream #0.0: Audio: mp3, 44100 Hz, 2 channels, s16, 128 kb/s
207-a._martos-el_7_de_septiembre_-_www.torrentazos.com_sample.mp3
Audio file info Duration: 00:05:58.64, start: 0.000000, bitrate: 127 kb/s
Stream #0.0: Audio: mp3, 44100 Hz, 2 channels, s16, 128 kb/s
213-m._fernandez-la_fuerza_del_destino_-_www.torrentazos.com_sample.mp3
Audio file info Duration: 00:09:38.51, start: 0.000000, bitrate: 127 kb/s
Stream #0.0: Audio: mp3, 44100 Hz, 2 channels, s16, 128 kb/s

Contents of download:

142 megabyte in 1 files
VA - Hoy No Me Puedo Levantar (2005) - Musical azos.com.rar
  • VA - Hoy No Me Puedo Levantar (2005) - Musical [www.torrentazos.com].rar (142 MB)

Comments:


Add report or comment (250 words maximum)

I'd like:  
Type text from captcha: