Our friends

DJ Finesse - Platinum Slow Jams 15 (2004) - R&B torrent

Torrent info

Date 2012-12-17 00:47:43
Category Music
Hash 725f87ee407668d03fb37d0218321cf49a326ecd
Seeds / Leechs -1 / -1 refresh
Full size 109 MB
Tracker http://tracker.publicbt.com/scrape
Tags finesse platinum slow jams 2004

Related torrents

!( DJ Finesse - Platinum Slow Jams 29 (2007) [VBR] [ TapeDown.Com / RapHustle.Com ]
DJ Finesse - Platinum Slow Jams 21 (2005) - R B 3543676 TPB
DJ Finesse - Platinum Slow Jams 37-2008-MIXFIEND
DJ Finesse - Platinum Slow Jams 38-2009-MIXFIEND

Torrent's content info

DJ Finesse - Platinum Slow Jams 15 (2004) - R&B By FEFE2003.rar

  • DJ Finesse - Platinum Slow Jams 15 (2004) - R&B By FEFE2003/08-houston-aint_nuthin_wrong.mp3 (5.5 MB)
  • DJ Finesse - Platinum Slow Jams 15 (2004) - R&B By FEFE2003/03-lloyd-this_way.mp3 (5.7 MB)
  • DJ Finesse - Platinum Slow Jams 15 (2004) - R&B By FEFE2003/20-r.kelly-bonus.mp3 (3.4 MB)
  • DJ Finesse - Platinum Slow Jams 15 (2004) - R&B By FEFE2003/06-oryan-ina_bad_way.mp3 (5.3 MB)
  • DJ Finesse - Platinum Slow Jams 15 (2004) - R&B By FEFE2003/Jalibury.com - Toda La Musica A Tu Alcance.url (0.2 KB)
  • DJ Finesse - Platinum Slow Jams 15 (2004) - R&B By FEFE2003/17-oryan-take_it_slow.mp3 (4.5 MB)
  • DJ Finesse - Platinum Slow Jams 15 (2004) - R&B By FEFE2003/11-isley_brothers_ft_mos_def-beauty_in_the_dark.mp3 (6.7 MB)
  • DJ Finesse - Platinum Slow Jams 15 (2004) - R&B By FEFE2003/04-keisha_coles-i_should_have_cheated.mp3 (7.4 MB)
  • DJ Finesse - Platinum Slow Jams 15 (2004) - R&B By FEFE2003/09-teedra_moses-for_a_lifetime.mp3 (5.5 MB)
  • DJ Finesse - Platinum Slow Jams 15 (2004) - R&B By FEFE2003/05-brandy-should_i_go.mp3 (6.7 MB)
  • DJ Finesse - Platinum Slow Jams 15 (2004) - R&B By FEFE2003/finesse15.jpg (11 KB)
  • DJ Finesse - Platinum Slow Jams 15 (2004) - R&B By FEFE2003/18-allure-frustration.mp3 (5.2 MB)
  • DJ Finesse - Platinum Slow Jams 15 (2004) - R&B By FEFE2003/16-s5-ooh_that_azz.mp3 (5.2 MB)
  • DJ Finesse - Platinum Slow Jams 15 (2004) - R&B By FEFE2003/10-omarion-im_tryin.mp3 (2.5 MB)
  • DJ Finesse - Platinum Slow Jams 15 (2004) - R&B By FEFE2003/02-ciara-and_i.mp3 (5 MB)
  • DJ Finesse - Platinum Slow Jams 15 (2004) - R&B By FEFE2003/12-ciara_and_cha_lu-its_crazy.mp3 (5 MB)
  • DJ Finesse - Platinum Slow Jams 15 (2004) - R&B By FEFE2003/14-trey_songz-get_ya_freak_on.mp3 (5.1 MB)
  • DJ Finesse - Platinum Slow Jams 15 (2004) - R&B By FEFE2003/15-lauryn_hill-the_passion.mp3 (7 MB)
  • DJ Finesse - Platinum Slow Jams 15 (2004) - R&B By FEFE2003/07-mario-let_me_love_u.mp3 (5.6 MB)
  • DJ Finesse - Platinum Slow Jams 15 (2004) - R&B By FEFE2003/01-omarion-o_(let_me_hear_u_say).mp3 (6.3 MB)
  • DJ Finesse - Platinum Slow Jams 15 (2004) - R&B By FEFE2003/13-raheem_de_vaugh-believe.mp3 (6.8 MB)
  • DJ Finesse - Platinum Slow Jams 15 (2004) - R&B By FEFE2003/19-new_edition-leave_me.mp3 (5.2 MB)

20 seconds audio samples

20-r.kelly-bonus_sample.mp3
Audio file info Duration: 00:02:29.67, start: 0.000000, bitrate: 191 kb/s
Stream #0.0: Audio: mp3, 44100 Hz, 2 channels, s16, 192 kb/s
06-oryan-ina_bad_way_sample.mp3
Audio file info Duration: 00:03:49.37, start: 0.000000, bitrate: 192 kb/s
Stream #0.0: Audio: mp3, 44100 Hz, 2 channels, s16, 192 kb/s
08-houston-aint_nuthin_wrong_sample.mp3
Audio file info Duration: 00:04:00.12, start: 0.000000, bitrate: 192 kb/s
Stream #0.0: Audio: mp3, 44100 Hz, 2 channels, s16, 192 kb/s
03-lloyd-this_way_sample.mp3
Audio file info Duration: 00:04:09.77, start: 0.000000, bitrate: 191 kb/s
Stream #0.0: Audio: mp3, 44100 Hz, 2 channels, s16, 192 kb/s

Contents of download:

109 megabyte in 1 files
DJ Finesse - Platinum Slow Jams 15 (2004) - R&B
  • DJ Finesse - Platinum Slow Jams 15 (2004) - R&B By FEFE2003.rar (109 MB)

Comments:


Add report or comment (250 words maximum)

I'd like:  
Type text from captcha: