Our friends

Never Say Never Again (1983) torrent

Torrent info

Date 2014-02-21 08:46:26
Category Movies
Hash a49d4f8bb1bdeaae920073d8518560770acf2c2c
Seeds / Leechs 1 / 0 refresh
Full size 1859 MB
Tracker http://tracker.thepiratebay.org/announce
Tags never never again 1983
Download – Never Say Never Again (1983) Download direct – no client needed

Related torrents

Klimt 1918 - Just In Case We ll Never Meet Again (2008)
VA - Dash Berlin - Never Cry Again (2010) [0/0]
James Bond 007 Never Say Never Again 1983 720p BluRay x264-SiNRS
Never Lose Again: Become a Top Negotiator by Asking the Right Qu

Description

Never Say Never Again (1983) DVD RIP INCLUDING DIRECTORIES COMMENTARY Storyline SPECTRE agents under the command of Ernst Blofeld infiltrate a US air force base situated in the UK and steal two Tomahawk cruise missiles. When NATO is held to ransom, the British reactive their "00" agents and send James Bond to recapture the warheads and kill Blofeld. Format : MPEG-4 Format profile : Base Media / Version 2 Codec ID : mp42 File size : 1.52 GiB Duration : 2h 14mn Overall bit rate mode : Variable Overall bit rate : 1 617 Kbps Encoded date : UTC 2013-12-30 08:32:48 Tagged date : UTC 2013-12-30 10:11:17 Writing application : HandBrake 0.9.9 2013052900 Video ID : 1 Format : AVC Format/Info : Advanced Video Codec Format profile : High@L4.1 Format settings, CABAC : Yes Format settings, ReFrames : 4 frames Codec ID : avc1 Codec ID/Info : Advanced Video Coding Duration : 2h 14mn Bit rate : 1 291 Kbps Width : 852 pixels Height : 480 pixels Display aspect ratio : 16:9 Frame rate mode : Variable Frame rate : 23.976 fps Minimum frame rate : 23.974 fps Maximum frame rate : 23.981 fps Color space : YUV Chroma subsampling : 4:2:0 Bit depth : 8 bits Scan type : Progressive Bits/(Pixel*Frame) : 0.132 Stream size : 1.21 GiB (80%) Writing library : x264 core 130 r2273 b3065e6 Encoding settings : cabac=1 / ref=3 / deblock=1:0:0 / Encoded date : UTC 2013-12-30 08:32:48 Tagged date : UTC 2013-12-30 10:11:17 Color primaries : BT.709 Transfer characteristics : BT.709 Matrix coefficients : BT.709 Audio #1 ID : 2 Format : AAC Format/Info : Advanced Audio Codec Format profile : LC Codec ID : 40 Duration : 2h 14mn Bit rate mode : Variable Bit rate : 160 Kbps Maximum bit rate : 317 Kbps Channel(s) : 2 channels Channel positions : Front: L R Sampling rate : 48.0 KHz Compression mode : Lossy Stream size : 154 MiB (10%) Language : English Encoded date : UTC 2013-12-30 08:32:48 Tagged date : UTC 2013-12-30 10:11:16 http://www.imdb.com/title/tt0086006/


Contents of download:

1859 megabyte in 9 files
Never Say Never Again (1983)
  • Never Say Never Again (1983)/Never Say Never Again (1983).mp4 (1553 MB)
  • Never Say Never Again (1983)/Never Say Never Again The Big Gamble Featurette.mp4 (129 MB)
  • Never Say Never Again (1983)/Never Say Never Again The Grils of never Says Never Again Featurette.mp4 (79 MB)
  • Never Say Never Again (1983)/Never Say Never Again Sean is back Featurette.mp4 (60 MB)
  • Never Say Never Again (1983)/Never Say Never Again Theatrical Trailer.mp4 (23 MB)
  • Never Say Never Again (1983)/Never Say Never Again (1983) Front Cover.jpg (8.1 MB)
  • Never Say Never Again (1983)/Never Say Never Again (1983) Sample.mp4 (6.9 MB)
  • Never Say Never Again (1983)/Never Say Never Again (1983) CD.jpg (0.1 MB)
  • Never Say Never Again (1983)/Never Say Never Again (1983) English.srt (80.5 KB)

Comments:


Add report or comment (250 words maximum)

I'd like:  
Type text from captcha: